<?xml version="1.0" standalone="no"?>
<!DOCTYPE svg PUBLIC "-//W3C//DTD SVG 1.1//EN" "http://www.w3.org/Graphics/SVG/1.1/DTD/svg11.dtd" >
<svg xmlns="http://www.w3.org/2000/svg">
<metadata>
<json>
<![CDATA[
{
	"fontFamily": "monia",
	"majorVersion": 1,
	"minorVersion": 0,
	"version": "Version 1.0",
	"fontId": "monia",
	"psName": "monia",
	"subFamily": "Regular",
	"fullName": "monia",
	"description": "Font generated by IcoMoon."
}
]]>
</json>
</metadata>
<defs>
<font id="monia" horiz-adv-x="1024">
<font-face units-per-em="1024" ascent="960" descent="-64" />
<missing-glyph horiz-adv-x="1024" />
<glyph unicode="&#x20;" horiz-adv-x="512" d="" />
<glyph unicode="&#xe900;" glyph-name="icon_1" data-tags="icon_1" d="M981.333 469.334h-426.667v426.667c0 23.552-19.115 42.667-42.667 42.667s-42.667-19.115-42.667-42.667v-426.667h-426.667c-23.552 0-42.667-19.115-42.667-42.667s19.115-42.667 42.667-42.667h426.667v-426.667c0-23.552 19.115-42.667 42.667-42.667s42.667 19.115 42.667 42.667v426.667h426.667c23.552 0 42.667 19.115 42.667 42.667s-19.115 42.667-42.667 42.667z" />
<glyph unicode="&#xe901;" glyph-name="icon_2" data-tags="icon_2" d="M371.499 42.667c-11.307 0-22.144 4.437-30.165 12.459l-341.333 341.333 60.331 60.331 309.077-309.077 590.251 671.275 64.213-56.192-620.288-705.621c-7.765-8.875-18.859-14.507-30.677-14.507-0.469 0-0.939 0-1.408 0z" />
<glyph unicode="&#xe902;" glyph-name="icon_3" data-tags="icon_3" d="M384 42.667c-10.923 0-21.845 4.181-30.165 12.501l-341.333 341.291c-16.683 16.64-16.683 43.648 0 60.331s43.648 16.683 60.331 0l341.333-341.291c16.683-16.64 16.683-43.648 0-60.331-8.32-8.32-19.243-12.501-30.165-12.501zM597.333 85.334c-10.923 0-21.845 4.181-30.165 12.501l-298.667 298.624c-16.683 16.64-16.683 43.648 0 60.331s43.648 16.683 60.331 0l268.501-268.459 353.835 353.835c16.683 16.683 43.648 16.683 60.331 0s16.683-43.648 0-60.331l-384-384c-8.32-8.32-19.243-12.501-30.165-12.501zM597.333 298.624c-9.813 0-19.669 3.371-27.733 10.283-17.877 15.317-19.968 42.283-4.608 60.16l256 298.709c15.36 17.835 42.24 19.925 60.16 4.608 17.877-15.317 19.968-42.283 4.608-60.16l-256-298.709c-8.448-9.856-20.437-14.891-32.427-14.891z" />
<glyph unicode="&#xe903;" glyph-name="icon_4" data-tags="icon_4" d="M572.331 426.624l439.168 439.168c16.683 16.683 16.683 43.648 0 60.331s-43.648 16.683-60.331 0l-439.168-439.168-439.168 439.168c-16.683 16.683-43.648 16.683-60.331 0s-16.683-43.648 0-60.331l439.168-439.168-439.168-439.168c-16.683-16.683-16.683-43.648 0-60.331 8.32-8.363 19.243-12.501 30.165-12.501s21.845 4.181 30.165 12.501l439.168 439.125 439.168-439.168c8.32-8.32 19.243-12.501 30.165-12.501s21.845 4.181 30.165 12.501c16.683 16.683 16.683 43.648 0 60.331l-439.168 439.211z" />
<glyph unicode="&#xe904;" glyph-name="icon_5" data-tags="icon_5" d="M512 938.624c-282.325 0-512-229.675-512-512s229.675-512 512-512 512 229.675 512 512-229.675 512-512 512zM512-0.042c-235.264 0-426.667 191.403-426.667 426.667s191.403 426.667 426.667 426.667 426.667-191.403 426.667-426.667-191.403-426.667-426.667-426.667zM554.667 640h-85.333v-170.667h-170.667v-85.333h170.667v-170.667h85.333v170.667h170.667v85.333h-170.667z" />
<glyph unicode="&#xe905;" glyph-name="icon_6" data-tags="icon_6" d="M512-85.376c-282.325 0-512 229.675-512 512s229.675 512 512 512 512-229.675 512-512-229.675-512-512-512zM512 853.291c-235.264 0-426.667-191.403-426.667-426.667s191.403-426.667 426.667-426.667 426.667 191.403 426.667 426.667-191.403 426.667-426.667 426.667zM298.667 469.334h426.667v-85.333h-426.667v85.333z" />
<glyph unicode="&#xe906;" glyph-name="icon_7" data-tags="icon_7" d="M512-85.376c-282.325 0-512 229.675-512 512s229.675 512 512 512 512-229.675 512-512-229.675-512-512-512zM512 853.291c-235.264 0-426.667-191.403-426.667-426.667s191.403-426.667 426.667-426.667 426.667 191.403 426.667 426.667-191.403 426.667-426.667 426.667zM469.333 213.291c-9.387 0-18.773 3.072-26.667 9.344l-213.333 170.667 53.333 66.645 181.461-145.152 271.744 310.613 64.256-56.192-298.667-341.333c-8.405-9.643-20.267-14.592-32.128-14.592z" />
<glyph unicode="&#xe907;" glyph-name="icon_8" data-tags="icon_8" d="M512 938.624c-282.325 0-512-229.675-512-512s229.675-512 512-512 512 229.675 512 512-229.675 512-512 512zM512-0.042c-235.264 0-426.667 191.403-426.667 426.667s191.403 426.667 426.667 426.667 426.667-191.403 426.667-426.667-191.403-426.667-426.667-426.667zM652.501 627.456l-140.501-140.501-140.501 140.501-60.331-60.331 140.501-140.501-140.501-140.501 60.331-60.331 140.501 140.459 140.501-140.459 60.331 60.331-140.501 140.501 140.501 140.501z" />
<glyph unicode="&#xe908;" glyph-name="icon_9" data-tags="icon_9" d="M512 938.624c-282.325 0-512-229.675-512-512s229.675-512 512-512 512 229.675 512 512-229.675 512-512 512zM938.667 426.624c0-102.272-36.267-196.267-96.512-269.824l-599.979 599.979c73.557 60.245 167.552 96.512 269.824 96.512 235.264 0 426.667-191.403 426.667-426.667zM85.333 426.624c0 102.272 36.267 196.267 96.512 269.824l599.979-600.021c-73.557-60.245-167.552-96.469-269.824-96.469-235.264 0-426.667 191.36-426.667 426.667z" />
<glyph unicode="&#xe909;" glyph-name="icon_10" data-tags="icon_10" d="M512-85.376c-282.325 0-512 229.675-512 512s229.675 512 512 512 512-229.675 512-512-229.675-512-512-512zM512 853.291c-235.264 0-426.667-191.403-426.667-426.667s191.403-426.667 426.667-426.667 426.667 191.403 426.667 426.667-191.403 426.667-426.667 426.667zM512 298.667c-23.595 0-42.667 19.115-42.667 42.667v341.333c0 23.552 19.072 42.667 42.667 42.667s42.667-19.115 42.667-42.667v-341.333c0-23.552-19.072-42.667-42.667-42.667zM512 128c-11.563 0-22.229 4.693-30.293 12.373-7.723 8.107-12.373 18.773-12.373 30.293 0 11.093 4.651 22.187 12.373 30.293 15.787 15.787 44.8 15.787 60.587 0 7.68-8.107 12.373-19.2 12.373-30.293 0-11.52-4.693-22.187-12.373-30.293-8.107-7.68-19.2-12.373-30.293-12.373z" />
<glyph unicode="&#xe90a;" glyph-name="icon_11" data-tags="icon_11" d="M1018.24 21.376l-469.333 810.667c-15.232 26.368-58.581 26.368-73.813 0l-469.333-810.667c-7.637-13.184-7.68-29.483-0.043-42.667 7.595-13.227 21.717-21.376 36.949-21.376h938.667c15.232 0 29.355 8.149 36.949 21.333 7.637 13.227 7.595 29.525-0.043 42.709zM116.651 42.667l395.349 682.837 395.349-682.837h-790.699zM469.333 512v-213.333c0-23.552 19.115-42.667 42.667-42.667s42.667 19.115 42.667 42.667v213.333c0 23.552-19.115 42.667-42.667 42.667s-42.667-19.115-42.667-42.667zM469.333 213.334h85.333v-85.333h-85.333v85.333z" />
<glyph unicode="&#xe90b;" glyph-name="icon_12" data-tags="icon_12" d="M512 298.667c-23.552 0-42.667 19.115-42.667 42.667v256c0 23.552 19.115 42.667 42.667 42.667s42.667-19.115 42.667-42.667v-256c0-23.552-19.115-42.667-42.667-42.667zM469.333 256h85.333v-85.333h-85.333v85.333zM746.368-42.666h-468.736c-15.531 0-29.909 8.235-37.589 21.547l-234.368 405.333c-7.595 13.099-7.595 29.184 0 42.24l234.368 405.333c7.723 13.312 22.059 21.547 37.589 21.547h468.693c15.573 0 29.909-8.235 37.589-21.547l234.368-405.333c7.595-13.099 7.595-29.184 0-42.24l-234.368-405.333c-7.68-13.312-22.016-21.547-37.547-21.547zM302.805 42.667h418.432l209.707 362.667-209.749 362.667h-418.389l-209.707-362.667 209.707-362.667z" />
<glyph unicode="&#xe90c;" glyph-name="icon_13" data-tags="icon_13" d="M597.333 213.334h-42.667v213.333c0 23.552-19.115 42.667-42.667 42.667h-85.333c-23.552 0-42.667-19.115-42.667-42.667s19.115-42.667 42.667-42.667h42.667v-170.667h-42.667c-23.552 0-42.667-19.115-42.667-42.667s19.115-42.667 42.667-42.667h170.667c23.552 0 42.667 19.115 42.667 42.667s-19.115 42.667-42.667 42.667zM597.333 639.958c0-47.128-38.205-85.333-85.333-85.333s-85.333 38.205-85.333 85.333c0 47.128 38.205 85.333 85.333 85.333s85.333-38.205 85.333-85.333zM512 938.624c-282.325 0-512-229.675-512-512s229.675-512 512-512 512 229.675 512 512-229.675 512-512 512zM512-0.042c-235.264 0-426.667 191.403-426.667 426.667s191.403 426.667 426.667 426.667 426.667-191.403 426.667-426.667-191.403-426.667-426.667-426.667z" />
<glyph unicode="&#xe90d;" glyph-name="icon_14" data-tags="icon_14" d="M512-85.376c-282.325 0-512 229.675-512 512s229.675 512 512 512 512-229.675 512-512-229.675-512-512-512zM512 853.291c-235.264 0-426.667-191.403-426.667-426.667s191.403-426.667 426.667-426.667 426.667 191.403 426.667 426.667-191.403 426.667-426.667 426.667zM511.872 258.731c-21.888 0-40.405 16.384-42.368 38.485-0.341 4.096-7.808 101.248 90.709 181.035 27.392 22.187 37.12 41.557 37.12 74.155 0 49.579-38.272 89.941-85.333 89.941-48.64 0-85.333-36.693-85.333-85.333 0-23.552-19.115-42.667-42.667-42.667s-42.667 19.115-42.667 42.667c0 95.701 74.965 170.667 170.667 170.667 94.123 0 170.667-78.635 170.667-175.275 0-58.709-21.205-102.059-68.736-140.501-61.824-50.048-59.52-105.472-59.392-107.776 1.323-23.253-16.256-43.605-39.467-45.312-1.109-0.085-2.176-0.085-3.2-0.085zM511.616 127.958c-2.389 0-4.821 0.171-7.296 0.64-23.211 4.011-38.784 26.069-34.773 49.28 4.011 23.168 26.283 39.893 49.493 36.011 23.211-4.011 38.997-24.875 34.987-48.085l-0.427-2.432c-3.541-20.779-21.589-35.413-41.984-35.413z" />
<glyph unicode="&#xe90e;" glyph-name="icon_15" data-tags="icon_15" d="M981.333 938.667h-938.667c-23.552 0-42.667-19.115-42.667-42.667v-938.667c0-23.552 19.115-42.667 42.667-42.667h938.667c23.552 0 42.667 19.115 42.667 42.667v938.667c0 23.552-19.115 42.667-42.667 42.667zM938.667-0h-853.333v853.333h853.333v-853.333zM298.667 384h170.667v-170.667c0-23.552 19.115-42.667 42.667-42.667s42.667 19.115 42.667 42.667v170.667h170.667c23.552 0 42.667 19.115 42.667 42.667s-19.115 42.667-42.667 42.667h-170.667v170.667c0 23.552-19.115 42.667-42.667 42.667s-42.667-19.115-42.667-42.667v-170.667h-170.667c-23.552 0-42.667-19.115-42.667-42.667s19.115-42.667 42.667-42.667z" />
<glyph unicode="&#xe90f;" glyph-name="icon_16" data-tags="icon_16" d="M981.333-85.333h-938.667c-23.595 0-42.667 19.115-42.667 42.667v938.667c0 23.552 19.072 42.667 42.667 42.667h938.667c23.595 0 42.667-19.115 42.667-42.667v-938.667c0-23.552-19.072-42.667-42.667-42.667zM85.333-0h853.333v853.333h-853.333v-853.333zM725.333 384h-426.667c-23.595 0-42.667 19.115-42.667 42.667s19.072 42.667 42.667 42.667h426.667c23.595 0 42.667-19.115 42.667-42.667s-19.072-42.667-42.667-42.667z" />
<glyph unicode="&#xe910;" glyph-name="icon_17" data-tags="icon_17" d="M981.333 938.667h-938.667c-23.595 0-42.667-19.115-42.667-42.667v-938.667c0-23.552 19.072-42.667 42.667-42.667h938.667c23.595 0 42.667 19.115 42.667 42.667v938.667c0 23.552-19.072 42.667-42.667 42.667zM938.667-0h-853.333v853.333h853.333v-853.333zM442.667 222.635c7.893-6.315 17.28-9.344 26.667-9.344 11.861 0 23.723 4.949 32.128 14.549l298.667 341.333c15.488 17.749 13.696 44.672-4.053 60.203-17.707 15.531-44.672 13.739-60.203-4.011l-271.744-310.613-181.461 145.152c-18.475 14.72-45.269 11.691-59.989-6.656-14.72-18.389-11.691-45.269 6.656-59.947l213.333-170.667z" />
<glyph unicode="&#xe911;" glyph-name="icon_18" data-tags="icon_18" d="M981.333 938.667h-938.667c-23.595 0-42.667-19.115-42.667-42.667v-938.667c0-23.552 19.072-42.667 42.667-42.667h938.667c23.595 0 42.667 19.115 42.667 42.667v938.667c0 23.552-19.072 42.667-42.667 42.667zM938.667-0h-853.333v853.333h853.333v-853.333zM311.168 225.792c8.32-8.363 19.243-12.501 30.165-12.501s21.845 4.181 30.165 12.501l140.501 140.459 140.501-140.501c8.32-8.32 19.243-12.501 30.165-12.501s21.845 4.181 30.165 12.501c16.683 16.683 16.683 43.648 0 60.331l-140.501 140.501 140.501 140.501c16.683 16.683 16.683 43.648 0 60.331s-43.648 16.683-60.331 0l-140.501-140.459-140.501 140.501c-16.683 16.683-43.648 16.683-60.331 0s-16.683-43.648 0-60.331l140.501-140.501-140.501-140.501c-16.683-16.683-16.683-43.691 0-60.331z" />
<glyph unicode="&#xe912;" glyph-name="icon_19" data-tags="icon_19" d="M981.333 938.667h-938.667c-23.595 0-42.667-19.115-42.667-42.667v-938.667c0-23.552 19.072-42.667 42.667-42.667h938.667c23.595 0 42.667 19.115 42.667 42.667v938.667c0 23.552-19.072 42.667-42.667 42.667zM85.333 792.918l366.336-366.336-366.336-366.293v732.629zM145.579 853.334h732.843l-366.421-366.379-366.421 366.379zM512 366.251l366.251-366.251h-732.501l366.251 366.251zM572.331 426.624l366.336 366.293v-732.672l-366.336 366.379z" />
<glyph unicode="&#xe913;" glyph-name="icon_20" data-tags="icon_20" d="M512-85.376c-258.773 0-469.333 200.96-469.333 448 0 196.821 132.267 368.597 329.131 427.349 22.613 6.869 46.379-6.101 53.077-28.672 6.741-22.571-6.101-46.336-28.672-53.077-160.427-47.915-268.203-186.795-268.203-345.6 0-199.979 172.245-362.667 384-362.667s384 162.688 384 362.667c0 158.848-107.776 297.728-268.203 345.6-22.571 6.741-35.413 30.507-28.672 53.077 6.699 22.571 30.421 35.541 53.077 28.672 196.864-58.752 329.131-230.528 329.131-427.349 0-247.040-210.56-448-469.333-448zM512 554.667c-23.595 0-42.667 19.115-42.667 42.667v256c0 23.552 19.072 42.667 42.667 42.667s42.667-19.115 42.667-42.667v-256c0-23.552-19.072-42.667-42.667-42.667z" />
<glyph unicode="&#xe914;" glyph-name="icon_21" data-tags="icon_21" d="M856.789 609.494c-22.229-7.893-33.835-32.299-25.941-54.485 14.933-42.069 22.485-85.248 22.485-128.384 0-211.712-172.288-384-384-384s-384 172.288-384 384 172.288 384 384 384c63.36 0 126.208-15.829 181.845-45.781 20.736-11.221 46.635-3.456 57.771 17.323 11.179 20.736 3.413 46.635-17.323 57.771-68.011 36.651-144.853 56.021-222.293 56.021-258.773 0-469.333-210.56-469.333-469.333s210.56-469.333 469.333-469.333 469.333 210.56 469.333 469.333c0 52.907-9.216 105.728-27.435 156.928-7.851 22.187-32.341 33.792-54.443 25.941zM966.272 928.512c-18.005 15.275-44.928 13.013-60.117-4.992l-439.467-519.296-180.523 180.565c-16.683 16.683-43.648 16.683-60.331 0s-16.683-43.648 0-60.331l213.333-213.333c8.021-8.021 18.859-12.459 30.165-12.459 0.597 0 1.195 0 1.792 0 11.904 0 23.083 5.973 30.805 15.061l469.376 554.667c15.189 18.005 12.928 44.928-5.035 60.117z" />
<glyph unicode="&#xe915;" glyph-name="icon_22" data-tags="icon_22" d="M896 554.667c-23.552 0-42.667-19.115-42.667-42.667v-512h-768v768h512c23.552 0 42.667 19.115 42.667 42.667s-19.115 42.667-42.667 42.667h-554.667c-23.552 0-42.667-19.115-42.667-42.667v-853.333c0-23.552 19.115-42.667 42.667-42.667h853.333c23.552 0 42.667 19.115 42.667 42.667v554.667c0 23.552-19.115 42.667-42.667 42.667zM966.229 885.888c-18.005 15.275-44.928 12.971-60.117-4.992l-439.424-519.339-180.523 180.565c-16.683 16.683-43.648 16.683-60.331 0s-16.683-43.648 0-60.331l213.333-213.333c8.021-8.021 18.859-12.459 30.165-12.459 0.597 0 1.195 0 1.792 0 11.904 0 23.125 5.973 30.805 15.061l469.333 554.709c15.189 18.005 12.928 44.928-5.035 60.117z" />
<glyph unicode="&#xe916;" glyph-name="icon_23" data-tags="icon_23" d="M768.043 743.723c-20.011 12.373-46.336 6.144-58.709-13.909s-6.144-46.336 13.909-58.709c108.16-66.731 172.757-182.059 172.757-308.48 0-199.979-162.688-362.667-362.667-362.667s-362.667 162.688-362.667 362.667c0 176.341 126.549 323.541 293.589 355.883l-71.723-95.616c-14.165-18.859-10.325-45.611 8.533-59.733 7.68-5.76 16.683-8.533 25.557-8.533 12.971 0 25.771 5.888 34.176 17.067l128 170.667c14.165 18.859 10.325 45.611-8.533 59.733l-170.667 128c-18.859 14.208-45.568 10.283-59.733-8.533-14.165-18.859-10.325-45.611 8.533-59.733l81.536-61.184c-202.325-43.093-354.603-223.061-354.603-438.016 0-247.040 200.96-448 448-448s448 200.96 448 448c0 156.245-79.744 298.709-213.291 381.099zM414.165 414.123c-16.683 16.683-43.648 16.683-60.331 0s-16.683-43.648 0-60.331l128-128c8.021-8.021 18.859-12.459 30.165-12.459 0.64 0 1.28 0 1.92 0 11.989 0 23.168 6.101 30.848 15.275l213.333 256c15.104 18.091 12.629 45.013-5.461 60.075-18.133 15.104-45.013 12.587-60.075-5.461l-183.424-220.117-94.976 95.019z" />
<glyph unicode="&#xe917;" glyph-name="icon_24" data-tags="icon_24" d="M569.301 808.79l46.165 61.525c14.165 18.859 10.325 45.611-8.533 59.733-18.901 14.208-45.611 10.283-59.733-8.533l-96-128c-11.392-15.147-11.392-36.053 0-51.2l96-128c8.363-11.179 21.205-17.067 34.176-17.067 8.875 0 17.877 2.773 25.557 8.533 18.859 14.123 22.656 40.875 8.533 59.733l-43.179 57.557c181.717-19.499 323.712-173.653 323.712-360.448 0-199.979-162.688-362.667-362.667-362.667s-362.667 162.688-362.667 362.667c0 3.925 0.299 7.765 0.555 11.648l0.469 7.424c1.237 23.552-16.853 43.605-40.363 44.843-23.424 1.195-43.605-16.811-44.843-40.363l-0.384-6.187c-0.427-5.76-0.768-11.52-0.768-17.365 0-247.040 200.96-448 448-448s448 200.96 448 448c0 234.837-181.803 427.733-412.032 446.165z" />
<glyph unicode="&#xe918;" glyph-name="icon_25" data-tags="icon_25" d="M980.565 380.032l-0.384 6.187c-1.237 23.552-21.589 41.6-44.843 40.363-23.509-1.237-41.6-21.333-40.363-44.843l0.469-7.424c0.256-3.925 0.555-7.808 0.555-11.691 0-199.979-162.688-362.667-362.667-362.667s-362.667 162.688-362.667 362.667c0 186.795 141.995 340.992 323.712 360.491l-43.179-57.557c-14.165-18.859-10.325-45.611 8.533-59.733 7.68-5.76 16.683-8.533 25.557-8.533 12.971 0 25.771 5.888 34.176 17.067l96 128c11.392 15.147 11.392 36.053 0 51.2l-96 128c-14.080 18.773-40.789 22.699-59.733 8.533-18.859-14.123-22.656-40.875-8.533-59.733l46.165-61.525c-230.229-18.475-412.032-211.371-412.032-446.208 0-247.040 200.96-448 448-448s448 200.96 448 448c0 5.845-0.341 11.605-0.768 17.408z" />
<glyph unicode="&#xe919;" glyph-name="icon_26" data-tags="icon_26" d="M533.333 938.624c-247.040 0-448-200.96-448-448 0-221.44 161.664-405.419 373.12-441.216l-61.952-61.952c-16.683-16.683-16.683-43.648 0-60.331 8.32-8.32 19.243-12.501 30.165-12.501s21.845 4.181 30.165 12.501l128 128c13.013 12.971 16.213 32.811 8.021 49.237l-85.333 170.667c-10.539 21.077-36.181 29.611-57.259 19.072s-29.611-36.181-19.072-57.259l52.523-105.088c-176.512 24.32-313.045 175.744-313.045 358.869 0 199.979 162.688 362.667 362.667 362.667s362.667-162.688 362.667-362.667c0-98.005-38.613-189.909-108.8-258.816-16.853-16.512-17.067-43.52-0.597-60.331 16.555-16.811 43.563-17.067 60.331-0.555 86.699 85.077 134.4 198.613 134.4 319.701 0 246.997-200.96 448-448 448z" />
<glyph unicode="&#xe91a;" glyph-name="icon_27" data-tags="icon_27" d="M694.571 811.52l92.501 46.251c21.077 10.539 29.611 36.181 19.072 57.259-10.581 21.077-36.224 29.611-57.259 19.072l-170.667-85.333c-19.84-9.941-28.8-33.408-20.523-54.016l85.333-213.333c6.699-16.683 22.741-26.837 39.637-26.837 5.291 0 10.667 0.981 15.829 3.072 21.888 8.789 32.555 33.579 23.808 55.467l-44.416 111.104c106.709-59.563 175.445-172.885 175.445-297.6 0-144.085-91.477-273.28-227.584-321.493-22.229-7.851-33.835-32.256-25.941-54.443 6.229-17.493 22.613-28.459 40.192-28.459 4.693 0 9.557 0.811 14.251 2.475 170.112 60.245 284.416 221.739 284.416 401.92 0 165.419-96.555 314.88-244.096 384.896zM422.187 232.363c-10.581 21.077-36.139 29.611-57.259 19.072-21.077-10.539-29.611-36.181-19.072-57.259l42.752-85.419c-130.389 50.048-217.941 174.421-217.941 317.867 0 160.299 109.184 297.045 265.472 332.544 22.955 5.248 37.376 28.075 32.171 51.072-5.248 22.997-28.288 37.547-51.072 32.128-195.456-44.416-331.904-215.381-331.904-415.744 0-182.741 113.664-340.693 281.813-400.853l-49.493-32.981c-19.627-13.056-24.917-39.552-11.819-59.179 8.192-12.331 21.76-18.987 35.541-18.987 8.107 0 16.341 2.304 23.637 7.168l128 85.333c17.92 11.947 24.107 35.328 14.507 54.571l-85.333 170.667z" />
<glyph unicode="&#xe91b;" glyph-name="icon_28" data-tags="icon_28" d="M128 469.291c5.291 0 10.667 0.981 15.829 3.029l213.333 85.333c21.888 8.789 32.555 33.579 23.808 55.467s-33.792 32.384-55.467 23.765l-111.189-44.459c59.563 106.752 172.928 175.531 297.685 175.531 144.085 0 273.237-91.477 321.451-227.541 6.187-17.536 22.613-28.459 40.192-28.459 4.693 0 9.557 0.811 14.251 2.475 22.229 7.893 33.835 32.256 25.941 54.443-60.16 170.069-221.653 284.416-401.835 284.416-165.461 0-314.965-96.555-384.896-244.053l-46.251 92.459c-10.624 21.077-36.181 29.653-57.259 19.072-21.077-10.539-29.653-36.181-19.115-57.259l85.333-170.667c7.424-14.848 22.485-23.552 38.187-23.552zM1016.832 279.595l-85.333 128c-11.947 17.877-35.371 24.149-54.571 14.507l-170.667-85.333c-21.077-10.539-29.611-36.181-19.072-57.259 10.581-21.12 36.139-29.653 57.259-19.072l85.419 42.709c-50.091-130.347-174.421-217.856-317.824-217.856-160.299 0-297.045 109.184-332.544 265.472-5.205 22.997-28.245 37.547-51.072 32.128-22.955-5.205-37.376-28.075-32.171-51.072 44.416-195.413 215.381-331.861 415.787-331.861 182.741 0 340.651 113.664 400.853 281.813l32.981-49.493c8.192-12.331 21.76-18.987 35.541-18.987 8.107 0 16.341 2.304 23.637 7.168 19.584 13.056 24.875 39.552 11.776 59.136z" />
<glyph unicode="&#xe91c;" glyph-name="icon_29" data-tags="icon_29" d="M128 469.291c5.291 0 10.667 0.981 15.829 3.029l213.333 85.333c21.888 8.789 32.555 33.579 23.808 55.467s-33.792 32.384-55.467 23.765l-111.189-44.459c59.563 106.752 172.928 175.531 297.685 175.531 144.085 0 273.237-91.477 321.451-227.541 6.187-17.536 22.613-28.459 40.192-28.459 4.693 0 9.557 0.811 14.251 2.475 22.229 7.893 33.835 32.256 25.941 54.443-60.16 170.069-221.653 284.416-401.835 284.416-165.461 0-314.965-96.555-384.896-244.053l-46.251 92.459c-10.624 21.077-36.139 29.653-57.259 19.072-21.077-10.539-29.653-36.181-19.115-57.259l85.333-170.667c7.424-14.848 22.485-23.552 38.187-23.552zM1016.832 279.595l-85.333 128c-11.947 17.877-35.371 24.149-54.571 14.507l-170.667-85.333c-21.077-10.539-29.611-36.181-19.072-57.259 10.581-21.12 36.181-29.653 57.259-19.072l85.419 42.709c-50.091-130.347-174.421-217.856-317.824-217.856-160.299 0-297.045 109.184-332.544 265.472-5.248 22.997-28.288 37.547-51.072 32.128-22.955-5.205-37.376-28.075-32.171-51.072 44.416-195.413 215.381-331.861 415.787-331.861 182.741 0 340.651 113.664 400.853 281.813l32.981-49.493c8.192-12.331 21.76-18.987 35.541-18.987 8.107 0 16.341 2.304 23.637 7.168 19.584 13.056 24.875 39.552 11.776 59.136zM554.667 597.334c0 23.552-19.072 42.667-42.667 42.667s-42.667-19.115-42.667-42.667v-213.333c0-23.552 19.072-42.667 42.667-42.667s42.667 19.115 42.667 42.667v213.333zM469.333 298.667h85.333v-85.333h-85.333v85.333z" />
<glyph unicode="&#xe91d;" glyph-name="icon_30" data-tags="icon_30" d="M440.363 678.742l-45.141 48.384c11.691 1.237 23.168 2.005 34.389 2.005 110.891 0 215.68-54.229 280.32-144.981 8.32-11.691 21.461-17.92 34.773-17.92 8.533 0 17.195 2.56 24.704 7.936 19.2 13.653 23.68 40.32 9.984 59.52-80.64 113.237-211.413 180.821-349.824 180.821-16.64 0-33.664-1.451-50.987-3.584l40.917 61.397c13.099 19.584 7.808 46.123-11.819 59.179-19.669 13.056-46.123 7.723-59.179-11.904l-85.333-128c-11.008-16.469-9.216-38.315 4.352-52.779l110.507-118.315c8.363-9.003 19.755-13.525 31.147-13.525 10.453 0 20.907 3.797 29.141 11.52 17.237 16.043 18.133 43.051 2.048 60.245zM256 213.334c-23.595 0-42.667-19.115-42.667-42.667v-52.437c-79.872 64.725-128 161.835-128 266.667 0 82.773 30.123 162.944 84.779 225.749 15.531 17.792 13.653 44.715-4.139 60.203-17.707 15.403-44.672 13.611-60.16-4.181-68.224-78.336-105.813-178.389-105.813-281.771 0-129.579 58.923-249.643 156.843-330.368l-42.325-14.123c-22.315-7.467-34.432-31.616-26.965-53.973 5.888-17.835 22.571-29.141 40.448-29.141 4.437 0 9.003 0.725 13.483 2.219l128 42.667c17.451 5.76 29.184 22.059 29.184 40.448v128.043c0 23.552-19.072 42.667-42.667 42.667zM968.832 371.456l-128 128c-16.683 16.683-43.648 16.683-60.331 0l-128-128c-16.683-16.683-16.683-43.648 0-60.331s43.648-16.683 60.331 0l60.416 60.416c-6.229-164.053-125.781-300.117-289.28-326.101-23.253-3.712-39.125-25.6-35.413-48.853 3.328-20.992 21.461-35.968 42.069-35.968 2.219 0 4.437 0.171 6.741 0.512 201.813 32.085 349.995 198.656 360.747 400.384l50.389-50.389c8.32-8.32 19.243-12.501 30.165-12.501s21.845 4.181 30.165 12.501c16.683 16.64 16.683 43.648 0 60.331z" />
<glyph unicode="&#xe91e;" glyph-name="icon_31" data-tags="icon_31" d="M1019.861 484.054c-2.816 23.381-23.808 39.893-47.488 37.248-23.381-2.816-40.064-24.064-37.248-47.488 29.184-241.195-130.773-401.664-302.293-453.675-170.411-51.669-390.955-7.936-499.413 206.336-113.536 224.384-10.88 434.133 141.184 542.464 147.243 104.832 371.797 132.181 541.611-43.179 0.171-0.171 0.469-0.213 0.64-0.427h-91.52c-23.552 0-42.667-19.115-42.667-42.667s19.115-42.667 42.667-42.667h170.667c23.552 0 42.667 19.115 42.667 42.667v170.667c0 23.552-19.115 42.667-42.667 42.667s-42.667-19.115-42.667-42.667v-45.44c-201.813 185.813-458.155 151.808-628.267 30.549-181.845-129.536-304.213-380.885-167.765-650.496 98.688-194.901 273.664-273.024 441.429-273.024 54.699 0 108.587 8.277 158.891 23.552 205.653 62.379 397.397 255.275 362.24 545.579zM512 682.624c-94.123 0-170.667-76.544-170.667-170.667v-54.485c-25.387-14.805-42.667-42.069-42.667-73.515v-128c0-47.061 38.272-85.291 85.333-85.291h256c47.061 0 85.333 38.229 85.333 85.291v128c0 31.445-17.28 58.709-42.667 73.515v54.485c0 94.080-76.544 170.667-170.667 170.667zM426.667 511.958c0 47.061 38.272 85.333 85.333 85.333s85.333-38.272 85.333-85.333v-42.624h-170.667v42.624zM384 255.958v128.043l256-0.043 0.085-127.957-256.085-0.043z" />
<glyph unicode="&#xe91f;" glyph-name="icon_32" data-tags="icon_32" d="M896 384c-23.552 0-42.667-19.115-42.667-42.667v-298.667h-768v597.333h170.667c23.552 0 42.667 19.115 42.667 42.667s-19.115 42.667-42.667 42.667h-213.333c-23.552 0-42.667-19.115-42.667-42.667v-682.667c0-23.552 19.115-42.667 42.667-42.667h853.333c23.552 0 42.667 19.115 42.667 42.667v341.333c0 23.552-19.115 42.667-42.667 42.667zM1011.541 712.79l-170.667 170.752c-16.683 16.683-43.691 16.64-60.373 0-16.683-16.683-16.683-43.691 0-60.373l97.792-97.835h-323.627c-159.104 0-298.667-199.381-298.667-426.667 0-23.552 19.115-42.667 42.667-42.667s42.667 19.115 42.667 42.667c0 192.213 114.688 341.333 213.333 341.333h323.712l-97.877-97.877c-16.683-16.683-16.683-43.648 0-60.331 8.32-8.32 19.243-12.501 30.165-12.501s21.845 4.181 30.165 12.501l170.667 170.667c16.683 16.64 16.683 43.648 0.043 60.331z" />
<glyph unicode="&#xe920;" glyph-name="icon_33" data-tags="icon_33" d="M896-42.666h-896c-23.552 0-42.667 19.115-42.667 42.667v725.333c0 23.552 19.115 42.667 42.667 42.667h213.333c23.552 0 42.667-19.115 42.667-42.667s-19.115-42.667-42.667-42.667h-170.667v-640h810.667v341.333c0 23.552 19.115 42.667 42.667 42.667s42.667-19.115 42.667-42.667v-384c0-23.552-19.115-42.667-42.667-42.667zM256 255.958c-2.688 0-5.376 0.256-8.064 0.768-20.096 3.84-34.603 21.419-34.603 41.899 0 374.997 275.925 450.389 384 465.536v89.173c0 16.555 9.6 31.616 24.576 38.656 14.933 6.997 32.683 4.779 45.397-5.888l256-213.333c9.728-8.107 15.36-20.096 15.36-32.768s-5.632-24.661-15.36-32.768l-256-213.376c-12.715-10.624-30.421-12.885-45.397-5.888s-24.576 22.059-24.576 38.656v83.584c-144.811-12.288-246.187-88.619-301.696-227.456-6.613-16.427-22.443-26.795-39.637-26.795zM682.667 762.24v-36.949c0-23.552-19.115-42.667-42.667-42.667-10.88-0.043-216.747-4.011-303.403-190.677 93.995 83.541 209.067 105.344 303.403 105.344 23.552 0 42.667-19.115 42.667-42.667v-36.907l146.688 122.283-146.688 122.24z" />
<glyph unicode="&#xe921;" glyph-name="icon_34" data-tags="icon_34" d="M896 640h-213.333c-23.552 0-42.667-19.115-42.667-42.667s19.115-42.667 42.667-42.667h170.667v-554.667h-682.667v554.667h170.667c23.552 0 42.667 19.115 42.667 42.667s-19.115 42.667-42.667 42.667h-213.333c-23.552 0-42.667-19.115-42.667-42.667v-640c0-23.552 19.115-42.667 42.667-42.667h768c23.552 0 42.667 19.115 42.667 42.667v640c0 23.552-19.115 42.667-42.667 42.667zM353.835 456.79c-16.683-16.683-16.683-43.648 0-60.331l128-128c8.32-8.32 19.243-12.501 30.165-12.501s21.845 4.181 30.165 12.501l128 128c16.683 16.683 16.683 43.648 0 60.331s-43.648 16.683-60.331 0l-55.168-55.168v494.379c0 23.552-19.115 42.667-42.667 42.667s-42.667-19.115-42.667-42.667v-494.379l-55.168 55.168c-16.683 16.64-43.648 16.64-60.331 0z" />
<glyph unicode="&#xe922;" glyph-name="icon_35" data-tags="icon_35" d="M896 640h-213.333c-23.552 0-42.667-19.115-42.667-42.667s19.115-42.667 42.667-42.667h170.667v-554.667h-682.667v554.667h170.667c23.552 0 42.667 19.115 42.667 42.667s-19.115 42.667-42.667 42.667h-213.333c-23.552 0-42.667-19.115-42.667-42.667v-640c0-23.552 19.115-42.667 42.667-42.667h768c23.552 0 42.667 19.115 42.667 42.667v640c0 23.552-19.115 42.667-42.667 42.667zM414.208 737.792l55.125 55.168v-494.293c0-23.552 19.115-42.667 42.667-42.667s42.667 19.115 42.667 42.667v494.293l55.125-55.168c8.363-8.363 19.285-12.501 30.208-12.501s21.845 4.181 30.165 12.459c16.683 16.683 16.683 43.691 0 60.373l-128 128.043c-16.043 16-44.331 16-60.373 0l-128-128.043c-16.64-16.683-16.64-43.691 0-60.373 16.725-16.64 43.733-16.64 60.416 0.043z" />
<glyph unicode="&#xe923;" glyph-name="icon_36" data-tags="icon_36" d="M981.333 298.667c-23.595 0-42.667-19.115-42.667-42.667v-256h-853.333v256c0 23.552-19.072 42.667-42.667 42.667s-42.667-19.115-42.667-42.667v-298.667c0-23.552 19.072-42.667 42.667-42.667h938.667c23.595 0 42.667 19.115 42.667 42.667v298.667c0 23.552-19.072 42.667-42.667 42.667zM481.835 183.126c1.579-1.579 3.584-2.261 5.333-3.541 2.688-2.005 5.248-4.267 8.405-5.589 5.248-2.176 10.795-3.371 16.427-3.371s11.179 1.195 16.427 3.371c3.2 1.323 5.76 3.584 8.491 5.632 1.707 1.237 3.712 1.92 5.248 3.499l213.333 213.333c16.683 16.683 16.683 43.648 0 60.331s-43.648 16.683-60.331 0l-140.501-140.501v579.712c0 23.552-19.072 42.667-42.667 42.667s-42.667-19.115-42.667-42.667v-579.712l-140.501 140.501c-16.683 16.683-43.648 16.683-60.331 0s-16.683-43.648 0-60.331l213.333-213.333z" />
<glyph unicode="&#xe924;" glyph-name="icon_37" data-tags="icon_37" d="M981.333 298.667c-23.595 0-42.667-19.115-42.667-42.667v-256h-853.333v256c0 23.552-19.072 42.667-42.667 42.667s-42.667-19.115-42.667-42.667v-298.667c0-23.552 19.072-42.667 42.667-42.667h938.667c23.595 0 42.667 19.115 42.667 42.667v298.667c0 23.552-19.072 42.667-42.667 42.667zM328.832 652.459l140.501 140.459v-579.584c0-23.552 19.072-42.667 42.667-42.667s42.667 19.115 42.667 42.667v579.584l140.501-140.501c8.32-8.32 19.243-12.459 30.165-12.459s21.845 4.181 30.165 12.501c16.683 16.683 16.683 43.648 0 60.331l-213.163 213.163c-4.011 4.053-8.789 7.253-14.165 9.472-2.389 0.981-4.949 0.981-7.467 1.536-2.859 0.597-5.632 1.707-8.704 1.707s-5.803-1.109-8.661-1.749c-2.517-0.512-5.077-0.555-7.509-1.536-5.376-2.176-10.155-5.376-14.165-9.472l-213.163-213.12c-16.683-16.683-16.683-43.648 0-60.331s43.648-16.683 60.331 0z" />
<glyph unicode="&#xe925;" glyph-name="icon_38" data-tags="icon_38" d="M1015.509 921.472c-12.331 16.512-34.688 21.845-53.248 12.629l-938.667-469.333c-14.037-6.997-23.083-21.205-23.595-36.864-0.469-15.701 7.723-30.379 21.333-38.229l210.048-121.429c20.352-11.776 46.507-4.779 58.283 15.573 11.776 20.395 4.779 46.507-15.616 58.283l-141.397 81.749 655.787 327.893-435.627-466.688c-7.381-7.893-11.477-18.304-11.477-29.099v-298.667c0-17.963 11.264-33.963 28.117-40.107 4.736-1.749 9.685-2.56 14.549-2.56 12.373 0 24.448 5.419 32.768 15.275l153.259 183.296 179.925-104.235c6.571-3.797 13.952-5.76 21.376-5.76 5.931 0 11.861 1.237 17.408 3.712 12.501 5.589 21.589 16.853 24.363 30.251l164.096 791.851 35.328 37.845c14.123 15.061 15.36 38.059 2.987 54.613zM426.667 74.838v121.387l68.352-39.595-68.352-81.792zM741.504 112.427l-281.131 162.816 404.779 433.664-123.648-596.48z" />
<glyph unicode="&#xe926;" glyph-name="icon_39" data-tags="icon_39" d="M1019.733 489.43c-2.347 19.029-17.067 34.133-36.053 36.992l-105.771 15.701c-6.699 21.205-15.232 41.771-25.557 61.525l63.659 85.845c11.435 15.445 11.136 36.565-0.683 51.669-25.899 33.152-55.851 63.061-88.832 88.875-15.147 11.776-36.309 12.075-51.712 0.64l-85.845-63.659c-19.755 10.283-40.277 18.816-61.483 25.515l-15.616 105.728c-2.816 18.944-17.92 33.707-36.864 36.053-45.995 5.803-79.915 5.803-125.909 0-18.987-2.389-34.048-17.109-36.907-36.053l-15.701-105.685c-21.163-6.699-41.728-15.189-61.483-25.515l-85.845 63.616c-15.36 11.435-36.608 11.136-51.712-0.64-32.981-25.813-62.933-55.723-88.832-88.875-11.776-15.104-12.075-36.267-0.683-51.669l63.659-85.845c-10.325-19.755-18.859-40.32-25.515-61.525l-105.771-15.701c-18.944-2.859-33.707-17.963-36.011-36.992-2.944-23.424-4.267-43.349-4.267-62.805 0-19.157 1.365-39.723 4.267-62.848 2.347-19.029 17.067-34.176 36.096-36.992l105.728-15.701c6.656-21.205 15.189-41.728 25.557-61.525l-63.659-85.803c-11.435-15.403-11.136-36.565 0.683-51.669 25.856-33.152 55.808-63.061 88.875-88.875 15.104-11.733 36.224-12.032 51.669-0.64l85.845 63.616c19.797-10.325 40.32-18.859 61.483-25.557l15.701-105.728c2.816-18.944 17.92-33.707 36.949-36.053 22.912-2.859 43.52-4.267 62.891-4.267s39.979 1.408 62.891 4.267c19.029 2.347 34.133 17.109 36.949 36.053l15.701 105.771c21.205 6.699 41.771 15.232 61.483 25.515l85.845-63.616c15.488-11.392 36.565-11.093 51.669 0.64 33.067 25.813 63.019 55.723 88.875 88.875 11.776 15.104 12.075 36.267 0.683 51.669l-63.659 85.845c10.283 19.712 18.816 40.277 25.557 61.483l105.728 15.701c18.987 2.816 33.749 17.963 36.096 36.992 2.859 23.125 4.267 43.691 4.267 62.848-0.171 19.456-1.493 39.381-4.437 62.805zM938.069 406.272l-100.181-14.891c-17.323-2.603-31.317-15.488-35.285-32.555-7.424-31.829-19.925-61.995-37.248-89.771-9.301-14.891-8.491-33.92 1.92-48l60.117-81.109c-9.131-10.027-18.731-19.669-28.8-28.8l-81.109 60.117c-14.123 10.411-33.067 11.179-47.957 1.92-27.733-17.28-57.941-29.781-89.813-37.248-17.024-3.968-29.909-17.963-32.512-35.285l-14.891-100.139c-14.080-0.811-26.581-0.811-40.661 0l-14.891 100.139c-2.603 17.323-15.488 31.317-32.597 35.285-31.659 7.339-61.867 19.883-89.771 37.248-14.891 9.216-33.835 8.448-47.957-1.92l-81.109-60.117c-10.027 9.131-19.669 18.773-28.8 28.8l60.117 81.109c10.411 14.080 11.221 33.109 1.92 48-17.365 27.861-29.909 58.027-37.205 89.728-3.968 17.109-17.963 30.037-35.328 32.597l-100.181 14.891c-0.299 7.040-0.512 13.739-0.512 20.352s0.213 13.312 0.597 20.309l100.224 14.891c17.323 2.603 31.317 15.488 35.285 32.597 7.253 31.659 19.797 61.824 37.205 89.685 9.259 14.891 8.491 33.92-1.92 48l-60.16 81.109c9.131 10.069 18.731 19.669 28.8 28.843l81.109-60.117c14.123-10.453 33.152-11.179 48-1.92 27.904 17.365 58.112 29.867 89.728 37.205 17.067 3.925 29.995 17.92 32.597 35.285l14.891 100.139c14.080 0.811 26.581 0.811 40.661 0l14.891-100.139c2.603-17.323 15.488-31.317 32.555-35.285 31.744-7.381 61.952-19.925 89.771-37.248 14.933-9.216 33.877-8.533 48 1.92l81.109 60.117c10.027-9.131 19.669-18.773 28.8-28.843l-60.117-81.109c-10.411-14.080-11.179-33.109-1.92-48 17.323-27.733 29.824-57.941 37.248-89.771 3.968-17.067 17.963-29.952 35.243-32.555l100.224-14.891c0.299-6.955 0.512-13.653 0.512-20.224s-0.213-13.312-0.597-20.352zM512 639.958c-117.632 0-213.333-95.701-213.333-213.333s95.701-213.333 213.333-213.333 213.333 95.701 213.333 213.333-95.701 213.333-213.333 213.333zM512 298.624c-70.571 0-128 57.429-128 128s57.429 128 128 128 128-57.429 128-128-57.429-128-128-128z" />
<glyph unicode="&#xe927;" glyph-name="icon_40" data-tags="icon_40" d="M649.003 353.75c11.349 14.507 12.075 34.688 1.835 49.963l-33.493 50.048c4.437 9.301 8.405 18.773 11.776 28.501l59.051 11.691c17.963 3.541 31.659 18.176 34.005 36.352 2.133 16.299 3.157 31.232 3.157 45.653 0 14.379-1.024 29.312-3.157 45.611-2.347 18.176-16.043 32.811-34.005 36.352l-59.051 11.691c-3.371 9.728-7.339 19.2-11.776 28.501l33.493 50.005c10.24 15.275 9.515 35.456-1.792 49.963-18.688 24.021-40.32 45.611-64.256 64.213-14.464 11.307-34.645 12.032-49.963 1.792l-50.005-33.493c-9.301 4.437-18.773 8.405-28.459 11.819l-11.648 59.008c-3.584 18.005-18.261 31.701-36.48 34.005-33.323 4.267-57.984 4.224-91.136 0-18.176-2.304-32.853-16-36.395-34.005l-11.691-59.008c-9.728-3.413-19.2-7.339-28.501-11.819l-50.005 33.493c-15.36 10.283-35.499 9.557-49.963-1.792-23.936-18.603-45.525-40.192-64.256-64.213-11.307-14.549-12.032-34.688-1.749-50.005l33.493-49.963c-4.48-9.259-8.405-18.816-11.819-28.501l-59.051-11.733c-18.048-3.584-31.701-18.261-34.048-36.48-2.091-16.597-3.115-31.488-3.115-45.44 0-14.037 1.024-28.885 3.115-45.483 2.347-18.219 16.043-32.896 34.048-36.48l59.051-11.691c3.413-9.728 7.339-19.243 11.819-28.501l-33.536-50.005c-10.24-15.317-9.515-35.456 1.835-50.005 18.645-23.936 40.235-45.525 64.171-64.171 14.549-11.349 34.688-12.075 50.005-1.792l50.005 33.493c9.301-4.437 18.773-8.405 28.501-11.776l11.691-59.051c3.541-18.005 18.261-31.744 36.437-34.048 16.683-2.091 31.531-3.115 45.483-3.115 14.123 0 28.587 0.981 45.483 3.115 18.261 2.304 32.939 16 36.523 34.048l11.648 59.008c9.685 3.413 19.157 7.339 28.459 11.776l50.005-33.493c15.275-10.24 35.413-9.515 50.005 1.792 24.021 18.645 45.611 40.235 64.256 64.171zM554.112 529.11c-4.736-19.541-12.459-38.187-22.997-55.467-8.661-14.208-8.277-32.128 0.939-45.952l29.696-44.416c-2.133-2.219-4.309-4.395-6.485-6.528l-44.373 29.696c-13.781 9.259-31.701 9.6-45.952 0.981-17.365-10.581-36.011-18.304-55.424-22.955-16.213-3.883-28.672-16.896-31.915-33.237l-10.368-52.565c-3.029-0.043-6.101-0.043-9.131 0l-10.453 52.693c-3.2 16.341-15.659 29.312-31.872 33.195-19.413 4.651-38.059 12.373-55.424 22.955-14.208 8.704-32.171 8.277-45.952-0.981l-44.373-29.696c-2.219 2.133-4.395 4.309-6.485 6.485l29.739 44.416c9.259 13.867 9.643 31.829 0.896 46.037-10.539 17.237-18.261 35.883-22.997 55.424-3.84 16.128-16.853 28.544-33.195 31.787l-52.651 10.453c0 1.493 0 2.987 0 4.523s0 3.029 0 4.523l52.651 10.453c16.341 3.243 29.355 15.659 33.195 31.829 4.693 19.541 12.459 38.187 23.040 55.467 8.704 14.208 8.32 32.171-0.981 45.995l-29.696 44.331c2.133 2.219 4.309 4.395 6.485 6.485l44.373-29.696c13.867-9.259 31.829-9.557 46.037-0.939 17.237 10.581 35.925 18.304 55.467 23.040 16.171 3.883 28.587 16.896 31.787 33.195l10.453 52.693c3.029 0 6.101 0 9.131 0l10.368-52.651c3.243-16.341 15.659-29.355 31.829-33.237 19.541-4.736 38.229-12.459 55.467-23.040 14.208-8.661 32.171-8.32 45.995 0.981l44.373 29.696c2.219-2.133 4.395-4.309 6.485-6.528l-29.696-44.331c-9.259-13.824-9.643-31.744-0.981-45.952 10.581-17.365 18.347-36.011 23.040-55.509 3.883-16.171 16.896-28.587 33.195-31.829l52.651-10.496c0-1.493 0-2.987 0-4.523s0-3.029 0-4.523l-52.651-10.453c-16.341-3.2-29.355-15.616-33.237-31.829zM1022.165 154.838c-2.389 18.176-16.085 32.853-34.091 36.395l-16.683 3.285 9.472 14.165c10.283 15.317 9.557 35.456-1.749 50.005-10.923 13.995-23.595 26.667-37.717 37.675-14.549 11.349-34.731 12.075-50.048 1.792l-14.123-9.472-3.328 16.725c-3.541 17.963-18.176 31.659-36.352 34.005-17.664 2.304-36.181 2.304-53.845 0-18.176-2.389-32.811-16.043-36.352-34.005l-3.328-16.725-14.123 9.472c-15.232 10.283-35.499 9.557-50.048-1.792-14.123-11.008-26.795-23.68-37.717-37.675-11.307-14.549-12.032-34.688-1.749-50.005l9.472-14.165-16.683-3.285c-18.005-3.541-31.701-18.219-34.091-36.395-1.024-8.917-1.749-17.835-1.749-26.88 0-9.088 0.725-18.091 1.877-26.923 2.347-18.176 16.043-32.768 33.963-36.352l16.768-3.328-9.472-14.165c-10.283-15.317-9.557-35.456 1.749-50.005 10.965-14.037 23.637-26.709 37.717-37.675 14.592-11.349 34.688-12.032 50.005-1.792l14.165 9.515 3.328-16.768c3.541-17.835 18.048-31.488 36.096-33.963 8.917-1.237 17.963-1.877 27.179-1.877s18.261 0.683 27.179 1.877c18.048 2.475 32.555 16.085 36.096 33.963l3.328 16.768 14.165-9.515c15.317-10.283 35.413-9.6 50.005 1.792 14.080 10.965 26.752 23.68 37.717 37.675 11.307 14.549 12.032 34.688 1.749 50.005l-9.472 14.165 16.768 3.328c17.92 3.584 31.616 18.176 33.963 36.352 1.067 8.832 1.792 17.792 1.792 26.923 0 9.045-0.725 17.963-1.835 26.88zM893.355 102.87c-1.963-8.235-5.291-20.949-9.899-28.501-4.181-6.912-6.229 10.965-6.187-31.701-0.043 0-0.128 0-0.128 0-7.723 0-15.403 6.699-22.229 2.517-7.595-4.608-15.573 0.811-23.893-1.195-7.893-1.877-14.891-7.125-20.352-12.629-5.461 5.547-12.459 7.253-20.352 9.131-8.277 2.005-16.299 0.683-23.893 5.291-6.784 4.181-14.507-3.115-22.187-3.115-0.043 0-0.128 0-0.128 0 0 42.667-2.091 24.789-6.229 31.659-4.608 7.595-7.979 24.96-9.899 33.195-1.92 7.893-5.973 14.933-11.52 20.437 5.547 5.504 9.643 12.544 11.52 20.437 1.963 8.235 5.291 16.341 9.899 23.979 4.181 6.869 6.229 14.72 6.229 22.4 6.315-1.536 15.488 2.347 22.357 6.528 7.595 4.608 15.573 8.576 23.808 10.539 7.936 1.877 14.933 7.125 20.437 12.672 5.504-5.547 12.501-7.253 20.437-9.131 8.192-1.963 16.213-0.597 23.808-5.205 6.741-4.181 14.464 3.157 22.144 3.157 0 0 0.128 0 0.171 0-0.043-42.667 2.048-25.429 6.229-32.256 4.608-7.637 7.979-25.685 9.899-33.877 1.877-7.936 5.973-16.085 11.52-21.589-5.589-5.504-9.643-14.848-11.563-22.741zM362.667 682.624c-58.837 0-106.667-47.872-106.667-106.667s47.829-106.667 106.667-106.667 106.667 47.829 106.667 106.667-47.829 106.667-106.667 106.667zM362.667 554.624c-11.733 0-21.333 9.557-21.333 21.333s9.6 21.333 21.333 21.333 21.333-9.6 21.333-21.333-9.6-21.333-21.333-21.333z" />
<glyph unicode="&#xe928;" glyph-name="icon_41" data-tags="icon_41" d="M512 42.624c-284.971 0-512 275.755-512 384s227.029 384 512 384 512-275.755 512-384-227.029-384-512-384zM512 725.291c-240.085 0-426.667-238.208-426.667-298.667s186.581-298.667 426.667-298.667 426.667 238.208 426.667 298.667-186.581 298.667-426.667 298.667zM512 213.291c-117.632 0-213.333 95.701-213.333 213.333s95.701 213.333 213.333 213.333 213.333-95.701 213.333-213.333-95.701-213.333-213.333-213.333zM512 554.624c-70.571 0-128-57.429-128-128s57.429-128 128-128 128 57.429 128 128-57.429 128-128 128z" />
<glyph unicode="&#xe929;" glyph-name="icon_42" data-tags="icon_42" d="M938.453 597.334c-9.344 8.917-19.499 18.645-30.379 29.739-16.512 16.768-43.563 16.939-60.373 0.469-16.811-16.555-16.981-43.563-0.469-60.373 11.563-11.691 22.272-22.016 32.171-31.488 44.331-42.411 59.264-56.747 59.264-109.056 0-60.459-186.581-298.667-426.667-298.667-42.411 0-86.101 7.936-129.92 23.552-22.059 7.893-46.592-3.627-54.528-25.856-7.936-22.187 3.627-46.592 25.856-54.528 53.035-18.901 106.411-28.501 158.592-28.501 284.971 0 512 275.755 512 384 0 88.747-37.76 124.885-85.547 170.709zM638.464 419.115c-8.491-61.483-59.392-111.445-120.96-118.699-23.424-2.773-40.149-23.979-37.376-47.36 2.56-21.717 20.992-37.675 42.325-37.675 1.707 0 3.371 0.085 5.077 0.299 99.541 11.776 181.803 92.459 195.541 191.787 3.2 23.339-13.099 44.885-36.437 48.085-23.339 3.115-44.928-13.056-48.171-36.437zM662.571 516.864c0.085 0.085 0.171 0.085 0.256 0.171s0.085 0.171 0.171 0.256l119.211 119.211c12.885 0.683 25.387 6.443 33.195 17.963 4.523 6.699 6.187 14.208 6.528 21.76l146.859 146.859c16.683 16.683 16.683 43.648 0 60.331s-43.648 16.683-60.331 0l-144.725-144.725c-81.92 47.104-168.107 71.936-251.733 71.936-284.971 0-512-275.755-512-384 0-85.291 64.811-176 187.392-264.32l-132.224-132.224c-16.683-16.683-16.683-43.648 0-60.331 8.32-8.32 19.243-12.459 30.165-12.459s21.845 4.181 30.165 12.501l159.019 159.019c6.784 3.285 12.843 8.277 17.195 15.104 0.683 1.067 0.768 2.347 1.365 3.456l369.493 369.493zM384 426.624c0 70.571 57.429 128 128 128 19.371 0 37.888-4.693 54.869-12.8l-170.069-170.069c-8.107 16.981-12.8 35.456-12.8 54.869zM85.333 426.624c0 60.459 186.581 298.667 426.667 298.667 72.405 0 137.301-22.827 188.843-49.493l-71.211-71.211c-34.603 22.955-75.136 35.371-117.632 35.371-117.632 0-213.333-95.701-213.333-213.333 0-42.496 12.416-83.029 35.371-117.632l-85.419-85.419c-103.893 72.491-163.285 145.493-163.285 203.051z" />
<glyph unicode="&#xe92a;" glyph-name="icon_43" data-tags="icon_43" d="M475.221-42.709c-10.581 0-21.163 3.925-29.397 11.776-17.067 16.256-17.707 43.264-1.451 60.331l442.667 464.213c69.333 72.661 69.333 190.805 0 263.424-32.939 34.56-76.587 53.547-122.837 53.547v0c-46.251 0-89.899-19.029-122.837-53.547l-513.536-538.453c-64.427-67.541-43.349-118.016-14.336-148.437 35.797-37.504 80.811-24.021 131.925 29.568l402.944 422.571c16.256 17.024 43.307 17.664 60.331 1.451 17.067-16.256 17.707-43.264 1.451-60.331l-402.944-422.571c-49.067-51.456-99.413-77.525-149.675-77.525-39.296 0-75.904 16.555-105.771 47.915-57.899 60.715-84.565 162.56 14.336 266.24l513.536 538.453c49.195 51.584 114.773 80 184.619 80 0 0 0 0 0 0 69.803 0 135.381-28.416 184.576-80 100.309-105.045 100.309-276.096 0-381.227l-442.709-464.213c-8.405-8.747-19.669-13.184-30.891-13.184z" />
<glyph unicode="&#xe92b;" glyph-name="icon_44" data-tags="icon_44" d="M810.667 938.624c-117.632 0-213.333-95.701-213.333-213.333 0-43.392 13.184-83.712 35.541-117.461l-620.373-620.373c-16.683-16.683-16.683-43.648 0-60.331 8.32-8.363 19.243-12.501 30.165-12.501s21.845 4.181 30.165 12.501l620.373 620.373c33.749-22.357 74.027-35.541 117.461-35.541 117.632 0 213.333 95.701 213.333 213.333s-95.701 213.333-213.333 213.333zM810.667 597.291c-70.571 0-128 57.429-128 128s57.429 128 128 128 128-57.429 128-128-57.429-128-128-128z" />
<glyph unicode="&#xe92c;" glyph-name="icon_45" data-tags="icon_45" d="M1011.499 542.166l-384 383.957c-12.203 12.203-30.549 15.872-46.507 9.259-15.915-6.613-26.325-22.187-26.325-39.424v-195.669l-134.741-134.741c-38.869 15.659-118.528 31.744-291.925 31.744-17.237 0-32.811-10.411-39.424-26.325-6.613-16-2.944-34.304 9.259-46.507l225.835-225.835-311.168-311.168c-16.683-16.683-16.683-43.648 0-60.331 8.32-8.363 19.243-12.501 30.165-12.501s21.845 4.181 30.165 12.501l311.168 311.168 225.835-225.835c8.149-8.149 19.072-12.459 30.165-12.459 0.171 0 0.341 0 0.469 0 22.187 0 43.051 18.944 43.051 42.624 0 2.944-0.299 5.803-0.896 8.576-0.512 167.467-16.341 245.12-31.701 283.349l134.741 134.784h195.669c17.237 0 32.811 10.411 39.424 26.325 6.613 15.957 2.944 34.304-9.259 46.507zM768 554.667c-11.307 0-22.187-4.48-30.165-12.501l-170.667-170.709c-15.829-15.829-14.848-43.264-0.171-60.16 0.256-0.299 20.608-25.557 27.819-163.2l-361.301 361.344c137.6-7.211 162.859-27.563 162.987-27.648 16.683-16.683 43.648-16.683 60.331 0l170.667 170.667c8.021 7.979 12.501 18.816 12.501 30.165v110.293l238.293-238.251h-110.293z" />
<glyph unicode="&#xe92d;" glyph-name="icon_46" data-tags="icon_46" d="M1011.499 542.166l-384 383.957c-12.203 12.203-30.507 15.829-46.507 9.259-15.957-6.613-26.325-22.187-26.325-39.424v-195.669l-134.699-134.741c-38.912 15.659-118.571 31.744-291.968 31.744-17.237 0-32.853-10.411-39.424-26.325-6.613-16-2.944-34.304 9.259-46.507l225.835-225.835-311.168-311.168c-16.683-16.683-16.683-43.648 0-60.331 8.32-8.363 19.243-12.501 30.165-12.501s21.845 4.181 30.165 12.501l311.168 311.168 225.835-225.835c8.149-8.149 19.072-12.459 30.165-12.459 0.256 0 0.64 0 0.853 0 23.595 0 42.667 19.072 42.667 42.624 0 2.944-0.299 5.803-0.853 8.576-0.555 167.467-16.384 245.12-31.701 283.349l134.699 134.784h195.669c17.237 0 32.853 10.411 39.424 26.325 6.613 15.957 2.944 34.304-9.259 46.507zM233.515 509.44c137.643-7.211 162.816-27.563 162.987-27.648l170.539-170.581c0.811-0.939 20.651-27.349 27.776-163.115l-361.301 361.344zM597.333 401.622l-110.336 110.293 110.336 110.336 110.293-110.293-110.293-110.336zM785.579 554.667l-145.579 145.621v92.629l238.336-238.251h-92.757z" />
<glyph unicode="&#xe92e;" glyph-name="icon_47" data-tags="icon_47" d="M640 938.624c-164.651 0-298.667-133.973-298.667-298.667 0-77.867 30.208-148.608 79.147-201.813l-322.688-322.688c-16.683-16.683-16.683-43.648 0-60.331l128-128c8.363-8.363 19.285-12.501 30.208-12.501s21.845 4.181 30.165 12.501c16.683 16.683 16.683 43.648 0 60.331l-97.835 97.835 67.669 67.627 97.835-97.835c8.32-8.32 19.243-12.459 30.165-12.459s21.845 4.181 30.165 12.501c16.683 16.683 16.683 43.648 0 60.331l-97.835 97.835 170.667 170.667c44.8-26.88 97.024-42.667 153.003-42.667 164.651 0 298.667 133.973 298.667 298.667s-134.016 298.667-298.667 298.667zM640 426.624c-117.632 0-213.333 95.701-213.333 213.333s95.701 213.333 213.333 213.333 213.333-95.701 213.333-213.333-95.701-213.333-213.333-213.333z" />
<glyph unicode="&#xe92f;" glyph-name="icon_48" data-tags="icon_48" d="M704 938.624c-176.469 0-320-143.531-320-320 0-37.333 6.443-73.771 19.243-108.757l-389.12-350.208c-9.003-8.149-14.123-19.669-14.123-31.744v-170.624c0-23.595 19.072-42.624 42.667-42.624h170.667c23.595 0 42.667 19.029 42.667 42.624v85.376h85.333c23.595 0 42.667 19.029 42.667 42.624v85.376h42.667c11.349 0 22.187 4.48 30.165 12.459l135.765 135.68c35.755-13.44 73.088-20.267 111.403-20.267 176.469 0 320 143.573 320 320 0 176.512-143.531 320.085-320 320.085zM704 383.915c-35.541 0-70.016 8.021-102.443 23.851-16.341 7.936-35.968 4.693-48.896-8.149l-143.659-143.616h-67.669c-23.595 0-42.667-19.157-42.667-42.709v-85.291h-85.333c-23.595 0-42.667-19.157-42.667-42.709v-85.291h-85.333v108.885l397.525 357.803c14.080 12.672 18.133 33.152 9.899 50.219-15.531 32.299-23.424 66.517-23.424 101.675 0 129.408 105.301 234.667 234.667 234.667s234.667-105.301 234.667-234.667c0-129.365-105.301-234.667-234.667-234.667zM810.667 661.248c0-35.346-28.654-64-64-64s-64 28.654-64 64c0 35.346 28.654 64 64 64s64-28.654 64-64z" />
<glyph unicode="&#xe930;" glyph-name="icon_49" data-tags="icon_49" d="M810.667 597.334h-42.667v85.291c0 141.184-114.816 256-256 256s-256-114.816-256-256v-85.291h-42.667c-70.571 0-128-57.429-128-128v-426.667c0-70.571 57.429-128 128-128h597.333c70.571 0 128 57.429 128 128v426.667c0 70.571-57.429 128-128 128zM341.333 682.624c0 94.123 76.544 170.667 170.667 170.667s170.667-76.544 170.667-170.667v-85.291h-341.333v85.291zM853.333 42.667c0-23.509-19.115-42.667-42.667-42.667h-597.333c-23.552 0-42.667 19.157-42.667 42.667v426.667c0 23.509 19.115 42.667 42.667 42.667h597.333c23.552 0 42.667-19.157 42.667-42.667v-426.667zM512 426.624c-47.061 0-85.333-38.272-85.333-85.333 0-31.445 17.28-58.667 42.667-73.472v-97.152c0-23.552 19.072-42.667 42.667-42.667s42.667 19.115 42.667 42.667v97.152c25.387 14.805 42.667 42.027 42.667 73.472 0 47.061-38.272 85.333-85.333 85.333z" />
<glyph unicode="&#xe931;" glyph-name="icon_50" data-tags="icon_50" d="M810.667 597.334h-469.333v85.291c0 94.123 76.544 170.667 170.667 170.667s170.667-85.291 170.667-170.624h85.333c0 128-114.816 255.957-256 255.957s-256-114.859-256-256v-85.291h-42.667c-70.571 0-128-57.429-128-128v-426.667c0-70.571 57.429-128 128-128h597.333c70.571 0 128 57.429 128 128v426.667c0 70.571-57.429 128-128 128zM853.333 42.667c0-23.509-19.115-42.667-42.667-42.667h-597.333c-23.552 0-42.667 19.157-42.667 42.667v426.667c0 23.509 19.115 42.667 42.667 42.667h597.333c23.552 0 42.667-19.157 42.667-42.667v-426.667zM512 426.624c-47.061 0-85.333-38.272-85.333-85.333 0-31.445 17.28-58.667 42.667-73.472v-97.152c0-23.552 19.072-42.667 42.667-42.667s42.667 19.115 42.667 42.667v97.152c25.387 14.805 42.667 42.027 42.667 73.472 0 47.061-38.272 85.333-85.333 85.333z" />
<glyph unicode="&#xe932;" glyph-name="icon_51" data-tags="icon_51" d="M512 938.582c-282.325 0-512-229.675-512-512 0-282.283 229.675-512 512-512s512 229.717 512 512c0 282.325-229.675 512-512 512zM512-0.085c-235.264 0-426.667 191.403-426.667 426.667 0 235.307 191.403 426.667 426.667 426.667s426.667-191.36 426.667-426.667c0-235.264-191.403-426.667-426.667-426.667zM512 725.248c-94.123 0-170.667-76.544-170.667-170.667 0-49.579 22.016-96.341 59.093-128.427l-57.472-201.088c-3.669-12.928-1.109-26.752 6.955-37.419 8.107-10.709 20.693-16.981 34.091-16.981h256c13.397 0 25.984 6.272 34.048 16.981 8.064 10.667 10.667 24.491 6.955 37.419l-57.472 201.088c37.12 32.085 59.136 78.848 59.136 128.427 0 94.123-76.544 170.667-170.667 170.667zM533.248 431.659l50.176-175.659h-142.891l50.219 175.659c5.419 19.029-2.901 39.253-20.139 48.939-27.093 15.232-43.947 43.563-43.947 73.984 0 47.104 38.272 85.333 85.333 85.333s85.333-38.229 85.333-85.333c0-30.421-16.853-58.752-43.989-73.941-17.237-9.728-25.557-29.952-20.096-48.981z" />
<glyph unicode="&#xe933;" glyph-name="icon_52" data-tags="icon_52" d="M1011.499-12.586l-327.765 327.851c52.608 65.707 84.267 148.821 84.267 239.317 0 211.755-172.288 384-384 384s-384-172.245-384-384c0-211.712 172.288-384 384-384 90.539 0 173.696 31.701 239.445 84.352l327.723-327.851c8.32-8.32 19.243-12.501 30.165-12.501s21.845 4.181 30.165 12.501c16.683 16.683 16.683 43.648 0 60.331zM384 255.915c-164.693 0-298.667 134.016-298.667 298.667 0 164.693 133.973 298.667 298.667 298.667s298.667-133.973 298.667-298.667c0-164.651-133.973-298.667-298.667-298.667z" />
<glyph unicode="&#xe934;" glyph-name="icon_53" data-tags="icon_53" d="M1011.499-12.586l-327.765 327.808c52.608 65.707 84.267 148.864 84.267 239.36 0 211.755-172.288 384-384 384s-384-172.245-384-384c0-211.712 172.288-384 384-384 90.539 0 173.696 31.659 239.403 84.309l327.765-327.808c8.32-8.32 19.243-12.501 30.165-12.501s21.845 4.181 30.165 12.501c16.683 16.683 16.683 43.648 0 60.331zM384 255.915c-164.693 0-298.667 134.016-298.667 298.667 0 164.693 133.973 298.667 298.667 298.667s298.667-133.973 298.667-298.667c0-164.651-133.973-298.667-298.667-298.667zM554.667 597.334h-128v128c0 23.595-19.115 42.667-42.667 42.667s-42.667-19.072-42.667-42.667v-128h-128c-23.552 0-42.667-19.072-42.667-42.667s19.115-42.667 42.667-42.667h128v-128c0-23.595 19.115-42.667 42.667-42.667s42.667 19.072 42.667 42.667v128h128c23.552 0 42.667 19.072 42.667 42.667s-19.115 42.667-42.667 42.667z" />
<glyph unicode="&#xe935;" glyph-name="icon_54" data-tags="icon_54" d="M1011.499-12.586l-327.765 327.808c52.608 65.707 84.267 148.864 84.267 239.36 0 211.755-172.288 384-384 384s-384-172.245-384-384c0-211.712 172.288-384 384-384 90.539 0 173.696 31.659 239.403 84.309l327.765-327.808c8.32-8.32 19.243-12.501 30.165-12.501s21.845 4.181 30.165 12.501c16.683 16.683 16.683 43.648 0 60.331zM384 255.915c-164.693 0-298.667 134.016-298.667 298.667 0 164.693 133.973 298.667 298.667 298.667s298.667-133.973 298.667-298.667c0-164.651-133.973-298.667-298.667-298.667zM554.667 597.334h-341.333c-23.552 0-42.667-19.072-42.667-42.667s19.115-42.667 42.667-42.667h341.333c23.552 0 42.667 19.072 42.667 42.667s-19.115 42.667-42.667 42.667z" />
<glyph unicode="&#xe936;" glyph-name="icon_55" data-tags="icon_55" d="M983.381 143.659l-270.549 270.507c-7.979 8.021-18.859 12.501-30.165 12.501h-110.336l-30.165 30.165c-1.621 1.579-3.627 2.304-5.419 3.584 37.845 50.048 60.587 112.128 60.587 179.584 0 164.651-133.973 298.667-298.667 298.667s-298.667-134.016-298.667-298.667c0-164.693 133.973-298.709 298.667-298.709 67.456 0 129.536 22.699 179.541 60.587 1.28-1.792 2.005-3.797 3.584-5.419l30.208-30.165v-110.336c0-11.307 4.48-22.187 12.501-30.165l270.507-270.464c26.581-26.581 58.88-40.661 93.355-40.661v0c34.517 0 69.163 14.848 94.976 40.661 46.805 46.763 61.867 126.507 0.043 188.331zM298.667 426.624c-117.632 0-213.333 95.701-213.333 213.376 0 117.632 95.701 213.333 213.333 213.333s213.333-95.701 213.333-213.333c0-117.675-95.701-213.376-213.333-213.376zM923.008 15.659c-9.941-9.941-22.571-15.659-34.603-15.659-11.563 0-22.656 5.248-33.024 15.659l-258.048 257.963v67.712h67.669l258.005-258.005c32.213-32.213 5.675-62.037 0-67.669z" />
<glyph unicode="&#xe937;" glyph-name="icon_56" data-tags="icon_56" d="M983.339 143.659l-270.507 270.507c-7.979 8.021-18.816 12.501-30.165 12.501h-110.336l-30.165 30.165c-1.579 1.579-3.669 2.304-5.419 3.584 37.845 50.048 60.587 112.128 60.587 179.584 0 164.651-134.016 298.667-298.667 298.667s-298.667-134.016-298.667-298.667c0-164.693 134.016-298.709 298.667-298.709 67.413 0 129.493 22.741 179.584 60.587 1.28-1.792 2.005-3.797 3.584-5.419l30.165-30.165v-110.336c0-11.307 4.48-22.187 12.501-30.165l270.507-270.464c26.581-26.581 58.88-40.661 93.355-40.661s69.12 14.848 94.976 40.661c46.805 46.763 61.824 126.507 0 188.331zM298.667 426.624c-117.632 0-213.333 95.701-213.333 213.376 0 117.632 95.701 213.333 213.333 213.333s213.333-95.701 213.333-213.333c0-117.675-95.701-213.376-213.333-213.376zM923.008 15.659c-9.984-9.941-22.571-15.659-34.645-15.659-11.563 0-22.656 5.248-33.024 15.659l-258.005 257.963v67.712h67.669l258.005-258.005c32.213-32.171 5.675-62.037 0-67.669zM426.667 682.667h-85.333v85.333c0 23.595-19.072 42.667-42.667 42.667s-42.667-19.072-42.667-42.667v-85.333h-85.333c-23.595 0-42.667-19.072-42.667-42.667s19.072-42.667 42.667-42.667h85.333v-85.333c0-23.595 19.072-42.667 42.667-42.667s42.667 19.072 42.667 42.667v85.333h85.333c23.595 0 42.667 19.072 42.667 42.667s-19.072 42.667-42.667 42.667z" />
<glyph unicode="&#xe938;" glyph-name="icon_57" data-tags="icon_57" d="M983.339 143.659l-270.507 270.507c-7.979 8.021-18.816 12.501-30.165 12.501h-110.336l-30.165 30.165c-1.579 1.579-3.669 2.304-5.419 3.584 37.845 50.048 60.587 112.128 60.587 179.584 0 164.651-134.016 298.667-298.667 298.667s-298.667-134.016-298.667-298.667c0-164.693 134.016-298.709 298.667-298.709 67.413 0 129.493 22.741 179.584 60.587 1.28-1.792 2.005-3.797 3.584-5.419l30.165-30.165v-110.336c0-11.307 4.48-22.187 12.501-30.165l270.507-270.464c26.581-26.581 58.88-40.661 93.355-40.661s69.12 14.848 94.976 40.661c46.805 46.763 61.824 126.507 0 188.331zM298.667 426.624c-117.632 0-213.333 95.701-213.333 213.376 0 117.632 95.701 213.333 213.333 213.333s213.333-95.701 213.333-213.333c0-117.675-95.701-213.376-213.333-213.376zM923.008 15.659c-9.984-9.941-22.571-15.659-34.645-15.659-11.563 0-22.656 5.248-33.024 15.659l-258.005 257.963v67.712h67.669l258.005-258.005c32.213-32.171 5.675-62.037 0-67.669zM426.667 682.667h-256c-23.595 0-42.667-19.072-42.667-42.667s19.072-42.667 42.667-42.667h256c23.595 0 42.667 19.072 42.667 42.667s-19.072 42.667-42.667 42.667z" />
<glyph unicode="&#xe939;" glyph-name="icon_58" data-tags="icon_58" d="M1011.499-12.586l-327.765 327.808c52.608 65.707 84.267 148.864 84.267 239.36 0 211.755-172.245 384-384 384-192.768 0-352.299-142.891-379.477-328.149l-59.691 59.648c-16.683 16.683-43.648 16.683-60.331 0s-16.683-43.648 0-60.331l128-128c8.32-8.32 19.243-12.501 30.165-12.501s21.845 4.181 30.165 12.501l128 128c16.683 16.683 16.683 43.648 0 60.331s-43.648 16.683-60.331 0l-46.933-46.891c31.147 131.669 149.376 230.059 290.432 230.059 164.651 0 298.667-133.973 298.667-298.667 0-164.651-134.016-298.667-298.667-298.667-82.005 0-158.805 33.579-216.192 94.507-16.171 17.195-43.136 17.92-60.288 1.835-17.152-16.171-17.963-43.179-1.792-60.331 73.643-78.251 172.501-121.344 278.272-121.344 90.539 0 173.653 31.659 239.403 84.309l327.765-327.808c8.32-8.32 19.243-12.501 30.165-12.501s21.845 4.181 30.165 12.501c16.683 16.683 16.683 43.648 0 60.331z" />
<glyph unicode="&#xe93a;" glyph-name="icon_59" data-tags="icon_59" d="M810.667 426.667c-23.595 0-42.667-19.072-42.667-42.667v-384h-682.667v682.667h384c23.595 0 42.667 19.072 42.667 42.667s-19.072 42.667-42.667 42.667h-426.667c-23.595 0-42.667-19.072-42.667-42.667v-768c0-23.595 19.072-42.667 42.667-42.667h768c23.595 0 42.667 19.072 42.667 42.667v426.667c0 23.595-19.072 42.667-42.667 42.667zM810.667 938.582c-117.632 0-213.333-95.659-213.333-213.333 0-117.589 95.701-213.333 213.333-213.333s213.333 95.744 213.333 213.333c0 117.675-95.701 213.333-213.333 213.333zM810.667 597.248c-70.571 0-128 57.429-128 128s57.429 128 128 128 128-57.429 128-128-57.429-128-128-128z" />
<glyph unicode="&#xe93b;" glyph-name="icon_60" data-tags="icon_60" d="M597.333 554.667h-554.667c-23.595 0-42.667-19.072-42.667-42.667v-554.667c0-23.595 19.072-42.667 42.667-42.667h554.667c23.595 0 42.667 19.072 42.667 42.667v554.667c0 23.595-19.072 42.667-42.667 42.667zM554.667-0h-469.333v469.333h469.333v-469.333zM981.333 938.667h-597.333c-23.595 0-42.667-19.072-42.667-42.667v-213.333c0-23.595 19.072-42.667 42.667-42.667s42.667 19.072 42.667 42.667v170.667h512v-512h-170.667c-23.595 0-42.667-19.072-42.667-42.667s19.072-42.667 42.667-42.667h213.333c23.595 0 42.667 19.072 42.667 42.667v597.333c0 23.595-19.072 42.667-42.667 42.667z" />
<glyph unicode="&#xe93c;" glyph-name="icon_61" data-tags="icon_61" d="M426.667-85.333c-4.992 0-10.027 0.896-14.933 2.688-18.304 6.869-29.611 25.259-27.435 44.672l37.376 336.64h-208.341c-16.555 0-31.616 9.6-38.656 24.576s-4.736 32.683 5.888 45.397l426.667 512c12.117 14.507 32.341 19.328 49.749 11.819 17.365-7.595 27.691-25.685 25.344-44.459l-36.651-293.333h164.992c15.872 0 30.421-8.832 37.803-22.869s6.315-31.061-2.688-44.075l-384-554.667c-8.192-11.819-21.419-18.389-35.115-18.389zM304.427 384h164.907c12.16 0 23.723-5.163 31.787-14.208 8.107-9.045 11.947-21.12 10.624-33.152l-24.021-216.107 241.493 348.8h-131.883c-12.245 0-23.893 5.248-32 14.421s-11.861 21.419-10.368 33.536l24.619 196.949-275.157-330.24z" />
<glyph unicode="&#xe93d;" glyph-name="icon_62" data-tags="icon_62" d="M256-128c-6.784 0-13.611 1.579-19.883 4.907-17.365 9.173-26.24 29.056-21.461 48.085l72.021 288.341h-30.677c-14.165 0-27.392 6.997-35.328 18.731s-9.557 26.624-4.309 39.765l61.952 154.837h-22.315c-13.483 0-26.197 6.357-34.219 17.152-8.064 10.837-10.539 24.832-6.656 37.76l128 426.667c5.419 18.091 22.059 30.421 40.875 30.421h384c15.531 0 29.781-8.405 37.333-22.016 7.509-13.525 7.083-30.123-1.109-43.264l-172.587-276.053h51.029c15.744 0 30.208-8.661 37.632-22.528s6.613-30.72-2.133-43.776l-126.421-189.696h5.589c16.811 0 32.043-9.813 38.912-25.173 6.912-15.317 4.139-33.28-7.040-45.824l-341.333-384c-8.277-9.387-20.011-14.336-31.872-14.336zM319.019 298.667h22.315c13.141 0 25.557-6.101 33.621-16.427s10.965-23.851 7.765-36.565l-43.221-172.843 163.627 184.064c-12.16 2.603-22.741 10.411-28.757 21.632-7.424 13.867-6.613 30.72 2.133 43.776l126.421 189.696h-48.256c-15.531 0-29.781 8.405-37.333 22.016-7.509 13.525-7.083 30.123 1.109 43.264l172.587 276.053h-275.285l-102.4-341.333h27.989c14.165 0 27.392-6.997 35.328-18.731s9.557-26.624 4.309-39.765l-61.952-154.837z" />
<glyph unicode="&#xe93e;" glyph-name="icon_63" data-tags="icon_63" d="M383.957-85.333c-7.851 0-15.787 2.133-22.869 6.656-19.883 12.629-25.771 38.997-13.099 58.88l256.939 403.797h-348.928c-15.061 0-29.013 7.936-36.693 20.907-7.68 12.928-7.979 28.971-0.768 42.155l256 469.333c11.307 20.608 37.248 28.288 57.899 16.981 20.693-11.307 28.331-37.205 17.024-57.899l-221.568-406.144h354.773c15.573 0 29.909-8.491 37.376-22.144 7.509-13.653 6.955-30.293-1.408-43.477l-298.667-469.333c-8.107-12.757-21.888-19.712-36.011-19.712z" />
<glyph unicode="&#xe93f;" glyph-name="icon_64" data-tags="icon_64" d="M170.667 546.731v349.269c0 23.595-19.115 42.667-42.667 42.667s-42.667-19.072-42.667-42.667v-349.269c-49.579-17.664-85.333-64.555-85.333-120.149 0-55.509 35.755-102.4 85.333-120.107v-349.141c0-23.595 19.115-42.667 42.667-42.667s42.667 19.072 42.667 42.667v349.141c49.579 17.664 85.333 64.64 85.333 120.107 0 55.595-35.755 102.485-85.333 120.149zM128.128 383.958c-0.043 0-0.085 0.043-0.128 0.043s-0.085-0.043-0.128-0.043c-23.467 0.128-42.539 19.2-42.539 42.624 0 23.552 19.157 42.667 42.667 42.667s42.667-19.115 42.667-42.667c0-23.424-19.072-42.496-42.539-42.624zM554.667 333.398v562.603c0 23.595-19.115 42.667-42.667 42.667s-42.667-19.072-42.667-42.667v-562.603c-49.579-17.664-85.333-64.597-85.333-120.149 0-55.509 35.755-102.4 85.333-120.107v-135.808c0-23.595 19.115-42.667 42.667-42.667s42.667 19.072 42.667 42.667v135.808c49.579 17.664 85.333 64.64 85.333 120.107 0 55.595-35.755 102.485-85.333 120.149zM512.128 170.624c-0.043 0-0.085 0.043-0.128 0.043s-0.085-0.043-0.128-0.043c-23.467 0.128-42.539 19.2-42.539 42.624 0 23.552 19.157 42.667 42.667 42.667s42.667-19.115 42.667-42.667c0-23.424-19.072-42.496-42.539-42.624zM1024 639.915c0 55.595-35.755 102.485-85.333 120.149v135.936c0 23.595-19.115 42.667-42.667 42.667s-42.667-19.072-42.667-42.667v-135.936c-49.579-17.664-85.333-64.597-85.333-120.149 0-55.509 35.755-102.4 85.333-120.107v-562.475c0-23.595 19.115-42.667 42.667-42.667s42.667 19.072 42.667 42.667v562.475c49.579 17.664 85.333 64.597 85.333 120.107zM896.128 597.291c-0.043 0-0.085 0.043-0.128 0.043s-0.085-0.043-0.128-0.043c-23.467 0.128-42.539 19.2-42.539 42.624 0 23.552 19.157 42.667 42.667 42.667s42.667-19.115 42.667-42.667c0-23.424-19.072-42.496-42.539-42.624z" />
<glyph unicode="&#xe940;" glyph-name="icon_65" data-tags="icon_65" d="M213.333 469.334h-42.667v426.667c0 23.595-19.115 42.667-42.667 42.667s-42.667-19.072-42.667-42.667v-426.667h-42.667c-23.552 0-42.667-19.072-42.667-42.667s19.115-42.667 42.667-42.667h42.667v-426.667c0-23.595 19.115-42.667 42.667-42.667s42.667 19.072 42.667 42.667v426.667h42.667c23.552 0 42.667 19.072 42.667 42.667s-19.115 42.667-42.667 42.667zM597.333 256h-42.667v640c0 23.595-19.115 42.667-42.667 42.667s-42.667-19.072-42.667-42.667v-640h-42.667c-23.552 0-42.667-19.072-42.667-42.667s19.115-42.667 42.667-42.667h42.667v-213.333c0-23.595 19.115-42.667 42.667-42.667s42.667 19.072 42.667 42.667v213.333h42.667c23.552 0 42.667 19.072 42.667 42.667s-19.115 42.667-42.667 42.667zM981.333 682.667h-42.667v213.333c0 23.595-19.115 42.667-42.667 42.667s-42.667-19.072-42.667-42.667v-213.333h-42.667c-23.552 0-42.667-19.072-42.667-42.667s19.115-42.667 42.667-42.667h42.667v-640c0-23.595 19.115-42.667 42.667-42.667s42.667 19.072 42.667 42.667v640h42.667c23.552 0 42.667 19.072 42.667 42.667s-19.115 42.667-42.667 42.667z" />
<glyph unicode="&#xe941;" glyph-name="icon_66" data-tags="icon_66" d="M938.667 938.667h-213.333c-23.595 0-42.667-19.072-42.667-42.667v-512.085c0-94.080-76.544-170.667-170.667-170.667s-170.667 76.587-170.667 170.667v512.085c0 23.595-19.072 42.667-42.667 42.667h-213.333c-23.595 0-42.667-19.072-42.667-42.667v-512.085c0-258.731 210.56-469.333 469.333-469.333s469.333 210.603 469.333 469.333v512.085c0 23.595-19.072 42.667-42.667 42.667zM896 853.334v-85.333h-128v85.333h128zM256 853.334v-85.333h-128v85.333h128zM512-0.085c-211.755 0-384 172.288-384 384v298.752h128v-298.752c0-141.184 114.816-256 256-256s256 114.816 256 256v298.752h128v-298.752c0-211.712-172.245-384-384-384z" />
<glyph unicode="&#xe942;" glyph-name="icon_67" data-tags="icon_67" d="M671.104 703.104c-16.64 16.597-43.563 16.683-60.245 0.085l-598.272-594.944c-8.064-7.979-12.587-18.816-12.587-30.165s4.48-22.229 12.501-30.251l120.661-120.661c8.32-8.32 19.243-12.501 30.165-12.501 10.88 0 21.76 4.181 30.080 12.416l598.272 594.901c8.021 7.979 12.587 18.816 12.587 30.165s-4.48 22.229-12.501 30.251l-120.661 120.704zM163.413 17.579l-60.331 60.331 392.405 390.229 60.331-60.331-392.405-390.229zM616.32 467.968l-60.331 60.331 84.821 84.395 60.331-60.331-84.821-84.395zM682.667 768c23.595 0 42.667 19.072 42.667 42.667v85.333c0 23.595-19.072 42.667-42.667 42.667s-42.667-19.072-42.667-42.667v-85.333c0-23.595 19.072-42.667 42.667-42.667zM981.333 640h-85.333c-23.595 0-42.667-19.072-42.667-42.667s19.072-42.667 42.667-42.667h85.333c23.595 0 42.667 19.072 42.667 42.667s-19.072 42.667-42.667 42.667zM883.499 456.747c-16.683 16.683-43.648 16.683-60.331 0s-16.683-43.648 0-60.331l85.333-85.333c8.32-8.32 19.243-12.501 30.165-12.501s21.845 4.181 30.165 12.501c16.683 16.683 16.683 43.648 0 60.331l-85.333 85.333zM481.835 737.75c8.32-8.32 19.243-12.501 30.165-12.501s21.845 4.181 30.165 12.501c16.683 16.683 16.683 43.648 0 60.331l-85.333 85.333c-16.683 16.683-43.648 16.683-60.331 0s-16.683-43.648 0-60.331l85.333-85.333zM853.333 725.248c10.923 0 21.845 4.181 30.165 12.501l85.333 85.333c16.683 16.683 16.683 43.648 0 60.331s-43.648 16.683-60.331 0l-85.333-85.333c-16.683-16.683-16.683-43.648 0-60.331 8.32-8.32 19.243-12.501 30.165-12.501z" />
<glyph unicode="&#xe943;" glyph-name="icon_68" data-tags="icon_68" d="M857.685 487.254l-161.963-170.752 164.992-163.243 163.285 167.979-166.315 166.016zM859.563 273.408l-45.483 45.013 45.269 47.659 45.824-45.739-45.611-46.933zM981.973 810.667l-101.248 102.997-101.248-102.997 101.248-102.997zM562.56 810.667l-101.205 102.997-101.291-102.997 101.291-102.997zM832.469 594.816c0 11.349-4.437 22.229-12.288 30.251l-118.613 120.661c-16.341 16.597-42.795 16.683-59.221 0.085l-629.973-637.568c-7.936-7.979-12.373-18.816-12.373-30.165s4.437-22.229 12.288-30.251l118.571-120.661c8.235-8.32 18.987-12.501 29.696-12.501s21.376 4.181 29.568 12.416l629.973 637.568c7.893 8.021 12.373 18.859 12.373 30.165zM160.64 17.579l-59.307 60.331 422.955 428.075 59.349-60.331-422.997-428.075zM643.072 505.856l-59.307 60.331 88.021 89.131 59.307-60.331-88.021-89.131z" />
<glyph unicode="&#xe944;" glyph-name="icon_69" data-tags="icon_69" d="M853.333 255.915c-57.771 0-108.672-28.971-139.563-73.003l-373.504 233.173c0.213 3.541 1.067 6.912 1.067 10.496 0 15.488-2.731 30.251-6.613 44.544l383.275 194.048c31.147-41.003 79.957-67.925 135.339-67.925 94.123 0 170.667 76.587 170.667 170.667 0 94.123-76.544 170.667-170.667 170.667s-170.667-76.544-170.667-170.667c0-8.107 1.28-15.915 2.432-23.765l-392.405-198.656c-30.976 31.829-74.155 51.755-122.027 51.755-94.123 0-170.667-76.544-170.667-170.667 0-94.080 76.544-170.667 170.667-170.667 59.392 0 111.616 30.592 142.208 76.672l371.371-231.765c-0.512-5.248-1.579-10.24-1.579-15.573 0-94.080 76.544-170.667 170.667-170.667s170.667 76.587 170.667 170.667c0 94.123-76.544 170.667-170.667 170.667zM853.333 853.248c47.061 0 85.333-38.229 85.333-85.333 0-47.061-38.272-85.333-85.333-85.333s-85.333 38.272-85.333 85.333c0 47.104 38.272 85.333 85.333 85.333zM170.667 341.248c-47.061 0-85.333 38.272-85.333 85.333 0 47.104 38.272 85.333 85.333 85.333s85.333-38.229 85.333-85.333c0-47.019-38.272-85.333-85.333-85.333zM853.333-0.085c-47.061 0-85.333 38.272-85.333 85.333 0 47.104 38.272 85.333 85.333 85.333s85.333-38.229 85.333-85.333c0-47.019-38.272-85.333-85.333-85.333z" />
<glyph unicode="&#xe945;" glyph-name="icon_70" data-tags="icon_70" d="M768 426.582c141.184 0 256 114.816 256 256s-114.816 256-256 256-256-114.816-256-256c0-32.427 6.272-63.317 17.323-91.904l-151.552-115.157c-39.125 47.829-97.92 79.061-164.437 79.061-117.632 0-213.333-95.659-213.333-213.333 0-117.589 95.701-213.333 213.333-213.333 67.029 0 126.251 31.744 165.376 80.256l221.099-147.371c11.989-82.475 82.475-146.219 168.192-146.219 94.123 0 170.667 76.587 170.667 170.667 0 94.123-76.544 170.667-170.667 170.667-69.291 0-128.768-41.643-155.52-101.035l-194.475 129.621c5.077 18.219 8.661 36.992 8.661 56.747 0 20.053-3.669 39.083-8.832 57.429l155.435 118.187c46.976-55.125 116.779-90.283 194.731-90.283zM768 170.582c47.061 0 85.333-38.229 85.333-85.333 0-47.061-38.272-85.333-85.333-85.333s-85.333 38.272-85.333 85.333c0 47.104 38.272 85.333 85.333 85.333zM213.333 213.248c-70.571 0-128 57.429-128 128s57.429 128 128 128 128-57.429 128-128-57.429-128-128-128zM768 853.248c94.123 0 170.667-76.544 170.667-170.667 0-94.080-76.544-170.667-170.667-170.667s-170.667 76.587-170.667 170.667c0 94.123 76.544 170.667 170.667 170.667z" />
<glyph unicode="&#xe946;" glyph-name="icon_71" data-tags="icon_71" d="M1024 823.424c-0.043 40.917-15.531 72.661-28.331 85.376-17.152 17.579-44.416 29.867-74.667 29.867-0.256 0-0.512 0-0.811 0-36.48 0-93.867-16.256-162.176-84.48l-181.291-193.28-493.44 2.773c-16.811 1.024-30.421-8.832-37.888-22.784l-40.32-75.349c-6.229-11.605-6.741-25.557-1.365-37.589s16-20.949 28.8-24.107l317.611-87.936-117.248-159.915h-107.179c-10.581 0-20.821 6.016-28.629-1.152l-83.029-70.229c-11.819-10.709-16.683-24.619-12.587-40.021s16.384-26.027 31.957-29.483l144.256-31.616 35.243-140.672c3.157-12.501 11.776-22.827 23.509-28.203 5.675-2.645 11.776-3.883 17.877-3.883 6.485 0 13.013 1.493 18.987 4.48l86.485 42.667c14.464 7.211 24.235 21.973 24.235 38.187v150.187l142.976 114.987 69.931-317.099c2.859-12.8 11.264-23.595 23.125-29.269 11.819-5.675 25.557-5.589 37.291 0.299l86.443 42.667c14.507 7.253 24.235 22.016 24.235 38.229v493.909l184.021 179.029c2.261 2.219 3.157 4.907 4.821 7.467 55.339 57.941 67.2 111.659 67.157 146.944zM695.040 538.71c-8.235-8.064-12.373-19.072-12.373-30.635v-485.547l-13.952-6.613-73.515 330.752c-3.2 14.379-13.739 26.069-27.605 31.019-13.867 4.821-29.44 2.261-40.917-6.955l-212.48-170.667c-10.197-8.107-15.531-20.352-15.531-33.323v-144.213l-15.275-7.296-30.080 119.168c-5.461 22.016-27.221 35.2-49.195 31.147l-71.68 6.101 9.728-0.981h111.531c13.141 0 25.557 15.957 33.621 26.325l170.667 223.317c8.917 11.392 11.435 29.013 6.699 42.667-4.736 13.696-16.085 25.301-30.165 28.757l-328.235 81.195 2.176 4.437 486.272-2.987c12.928-0.896 23.211 4.821 31.317 13.483l193.152 204.928c65.28 65.28 108.885 58.837 113.792 56.405 0.299-0.427 28.331-47.744-41.984-118.101-1.493-1.493-1.835-3.413-3.072-5.077l-192.896-187.307z" />
<glyph unicode="&#xe947;" glyph-name="icon_72" data-tags="icon_72" d="M810.667 84.822c-23.552 0-42.667-19.072-42.667-42.667v-16.512l-14.123-6.187-37.589 164.48c-5.12 23.040-28.459 37.419-51.413 32.384-22.997-5.12-37.717-27.947-32.597-50.944l48.512-217.984c2.859-12.843 11.435-23.68 23.339-29.269 5.76-2.731 11.989-4.139 18.219-4.139 6.571 0 13.184 1.536 19.2 4.523l86.443 42.667c14.421 7.339 25.344 22.059 25.344 38.187v42.795c0 23.595-19.115 42.667-42.667 42.667zM538.453 316.16l-140.16-112.725c-10.197-8.064-14.293-20.352-14.293-33.408v-144.384l-15.36-6.827-29.525 114.389c-0.085 19.456-13.227 37.12-32.981 41.557l-93.781 21.163 16.597 17.408h110.080c12.672 0 24.661 5.376 32.811 15.104l119.979 143.915c15.061 18.091 12.629 44.971-5.461 60.032s-45.013 12.843-60.117-5.248l-107.179-128.469h-108.032c-11.477 0-22.443-4.864-30.464-13.099l-83.029-84.864c-10.837-11.051-14.848-27.221-10.453-42.027s16.512-26.155 31.616-29.525l140.416-31.36 37.845-151.424c3.157-12.587 11.819-22.997 23.637-28.416 5.632-2.603 11.691-3.883 17.792-3.883 6.571 0 13.184 1.536 19.2 4.523l86.485 42.667c14.336 7.253 25.259 21.973 25.259 38.101v150.059l123.989 99.925c18.475 14.677 20.608 41.515 5.973 59.947-14.635 18.517-42.411 21.547-60.843 6.869zM853.333 493.483l174.208 173.653c3.627 1.963 6.4 3.883 9.472 6.912 44.544 44.587 70.101 105.813 69.077 163.84-0.384 22.699-5.547 54.101-25.429 72.491-17.195 17.621-44.544 28.075-74.795 28.288-36.053-1.195-94.208-13.312-163.115-82.176l-167.979-177.749-276.693 3.243-243.627 243.584-60.331-60.331 938.667-938.709 62.208 60.331-241.664 243.541v263.083zM692.992 597.334c0.043 0 0.128 0 0.171 0 11.776 0 23.040 1.835 31.104 10.411l179.669 188.459c60.843 60.843 102.955 59.307 114.773 54.144 4.608-15.659 1.323-65.92-36.949-108.928-2.432-1.579-5.077-2.688-7.211-4.736l-195.712-194.901c-8.107-8.021-10.837-18.987-10.837-30.421v-195.627l-281.984 280.363 206.976 1.237zM117.845 507.094l228.565-56.064c3.413-0.853 6.827-1.237 10.197-1.237 19.2 0 36.608 13.184 41.387 32.64 5.632 22.869-8.363 46.123-31.275 51.712l-175.104 43.179 2.176 4.565 31.531 0.811c24.149-0.896 42.795 20.779 42.923 44.373 0.128 23.552-18.816 46.976-42.411 47.104l-57.216 8.491c-0.085 0-0.171 0-0.256 0-15.701 0-30.165-16.768-37.632-30.592l-40.32-83.243c-6.229-11.605-6.741-25.557-1.408-37.589 5.376-12.032 16-20.992 28.843-24.149z" />
<glyph unicode="&#xe948;" glyph-name="icon_73" data-tags="icon_73" d="M896 768h-213.333v85.248c0 47.104-38.272 85.419-85.333 85.419h-170.667c-47.061 0-85.333-38.315-85.333-85.419v-85.248h-213.333c-23.552 0-42.667-19.072-42.667-42.667s19.115-42.667 42.667-42.667h6.784l124.885-734.037c3.456-20.523 21.248-33.963 42.027-33.963 0.085 0 0.213 0 0.299 0h428.373c20.779 0.171 36.736 15.189 40.064 35.755l119.211 732.245h6.357c23.552 0 42.667 19.072 42.667 42.667s-19.115 42.667-42.667 42.667zM426.667 853.334l170.667-0.085v-85.248h-170.667v85.333zM682.667-0.256l-341.333 0.256-120.107 682.667h581.973l-120.533-682.923z" />
<glyph unicode="&#xe949;" glyph-name="icon_74" data-tags="icon_74" d="M938.667 768h-256v85.248c0 47.104-38.272 85.419-85.333 85.419h-170.667c-47.061 0-85.333-38.315-85.333-85.419v-85.248h-256c-23.552 0-42.667-19.072-42.667-42.667s19.115-42.667 42.667-42.667h6.528l122.069-732.331c3.413-20.565 21.205-35.669 42.069-35.669h512c20.864 0 38.656 15.104 42.069 35.669l122.069 732.331h6.528c23.552 0 42.667 19.072 42.667 42.667s-19.115 42.667-42.667 42.667zM426.667 853.334l170.667-0.085v-85.248h-170.667v85.333zM731.861-0h-439.723l-113.792 682.667h667.307l-113.792-682.667zM390.229 315.35c-2.389 5.419-5.333 18.901-6.229 25.899 0 46.763 39.637 84.267 85.333 99.328v-13.995c0-16.171 9.131-30.933 23.595-38.187 6.059-2.987 12.587-4.48 19.072-4.48 9.045 0 18.048 2.901 25.6 8.576l85.333 64c10.752 8.021 17.067 20.651 17.067 34.091s-6.315 26.069-17.067 34.176l-85.333 64c-12.971 9.728-30.251 11.264-44.672 4.011-14.464-7.211-23.595-22.016-23.595-38.187v-25.771c-88.619-17.749-170.667-89.088-170.496-191.531 2.048-22.144 8.875-62.251 31.232-82.389 8.149-7.381 18.389-11.008 28.544-11.008 11.648 0 23.296 4.736 31.701 14.080 14.891 16.512 14.507 41.344-0.085 57.387zM554.667 199.851v13.397c0 16.171-9.131 30.976-23.595 38.187-14.507 7.253-31.787 5.675-44.672-4.011l-85.333-64c-10.752-8.107-17.067-20.736-17.067-34.176 0-13.397 6.315-26.069 17.067-34.091l85.333-64c7.552-5.675 16.555-8.576 25.6-8.576 6.485 0 13.056 1.493 19.072 4.48 14.464 7.253 23.595 22.016 23.595 38.187v25.813c90.325 18.688 170.667 96.896 170.667 230.187 0 23.595-19.115 42.667-42.667 42.667s-42.667-19.072-42.667-42.667c0-78.848-39.211-124.373-85.333-141.397z" />
<glyph unicode="&#xe94a;" glyph-name="icon_75" data-tags="icon_75" d="M1012.779 412.758l-469.333 512c-16.171 17.664-46.763 17.664-62.933 0l-469.333-512c-15.915-17.323-14.763-44.331 2.645-60.245 17.365-15.915 44.416-14.763 60.288 2.603l11.221 12.203v-409.984c0-23.595 19.115-42.667 42.667-42.667h213.333c23.552 0 42.667 19.072 42.667 42.667v298.667h256v-298.667c0-23.595 19.115-42.667 42.667-42.667h213.333c23.552 0 42.667 19.072 42.667 42.667v409.984l11.221-12.245c8.405-9.173 19.925-13.824 31.488-13.824 10.283 0 20.608 3.755 28.8 11.264 17.365 15.915 18.517 42.923 2.603 60.245zM853.333 426.667v-426.667h-128v298.667c0 23.595-19.115 42.667-42.667 42.667h-341.333c-23.552 0-42.667-19.072-42.667-42.667v-298.667h-128v426.667c0 9.259-3.584 17.365-8.576 24.363l349.909 381.781 349.909-381.739c-4.992-7.040-8.576-15.147-8.576-24.405z" />
<glyph unicode="&#xe94b;" glyph-name="icon_76" data-tags="icon_76" d="M384 256c-11.733 0-23.168 4.864-31.317 13.653-10.112 11.008-13.781 26.496-9.685 40.832l44.843 155.008c1.963 6.741 5.547 12.928 10.453 17.92l419.328 429.952c33.024 33.024 88.789 32.64 121.045 0.384l60.331-60.331c33.195-33.323 33.195-87.424 0.043-120.661l-418.944-429.611c-5.931-6.101-13.568-10.283-21.931-11.989l-165.547-34.261c-2.859-0.597-5.76-0.896-8.619-0.896zM466.816 431.488l-22.187-76.715 83.456 17.28 410.155 420.565-59.947 60.757-411.477-421.888zM896-85.333h-853.333c-23.595 0-42.667 19.072-42.667 42.667v853.333c0 23.595 19.072 42.667 42.667 42.667h469.333c23.595 0 42.667-19.072 42.667-42.667s-19.072-42.667-42.667-42.667h-426.667v-768h768v426.667c0 23.595 19.072 42.667 42.667 42.667s42.667-19.072 42.667-42.667v-469.333c0-23.595-19.072-42.667-42.667-42.667z" />
<glyph unicode="&#xe94c;" glyph-name="icon_77" data-tags="icon_77" d="M512 938.582c-282.325 0-512-229.675-512-512 0-39.637 4.565-79.232 13.568-117.675 5.376-22.955 28.331-37.163 51.285-31.787 22.912 5.376 37.163 28.331 31.787 51.285-7.509 32.085-11.307 65.109-11.307 98.176 0 235.307 191.403 426.667 426.667 426.667s426.667-191.36 426.667-426.667c0-235.264-191.403-426.667-426.667-426.667-69.931 0-136.789 16.768-197.12 48.384l38.059 6.613c8.661 1.493 16.683 5.632 22.869 11.819l452.565 452.608c33.152 33.237 33.152 87.381-0.043 120.704l-60.331 60.331c-16.128 16.128-37.547 24.96-60.331 24.96s-44.203-8.832-60.331-25.003l-452.608-452.48c-6.357-6.4-10.581-14.677-11.989-23.595l-22.912-145.621c-2.133-13.568 2.432-27.392 12.245-37.035 4.48-4.437 9.984-7.424 15.829-9.515 1.664-1.963 2.816-4.267 4.949-5.931 90.155-71.936 203.52-111.573 319.104-111.573 282.325 0 512 229.717 512 512 0.043 282.325-229.632 512-511.957 512zM768 579.627l-53.973-53.973-60.373 60.373 54.016 53.973 60.331-60.373zM264.917 197.291l328.405 328.405 60.373-60.373-328.704-328.661-71.595-12.416 11.52 73.045z" />
<glyph unicode="&#xe94d;" glyph-name="icon_78" data-tags="icon_78" d="M896 512c-23.595 0-42.667-19.072-42.667-42.667v-469.333h-768v768h85.333c23.595 0 42.667 19.072 42.667 42.667s-19.072 42.667-42.667 42.667h-128c-23.595 0-42.667-19.072-42.667-42.667v-853.333c0-23.595 19.072-42.667 42.667-42.667h853.333c23.595 0 42.667 19.072 42.667 42.667v512c0 23.595-19.072 42.667-42.667 42.667zM1018.112 917.59c-7.595 13.056-21.675 21.077-36.779 21.077-0.128 0-0.299 0-0.469 0-408.235-4.267-639.104-89.984-726.656-269.909-49.749-102.229-4.864-222.763 26.752-286.293-45.099-74.027-84.139-155.605-108.715-242.944-6.357-22.656 6.827-46.251 29.483-52.608 3.883-1.109 7.808-1.621 11.605-1.621 18.645 0 35.755 12.331 41.045 31.104 19.883 70.656 50.901 137.643 87.083 199.893 23.637-7.339 54.059-11.52 86.997-11.52 115.371 0 249.771 49.408 289.792 186.667 75.435 64 250.112 296.277 300.032 383.317 7.68 13.269 7.595 29.611-0.171 42.837zM661.803 554.326c-11.435-5.675-19.84-16.171-22.741-28.757-29.013-125.739-168.448-135.509-210.56-135.509-15.317 0-28.075 1.109-38.656 2.688 131.925 191.232 297.941 319.019 300.331 320.853 18.731 14.208 22.4 41.003 8.192 59.733-14.293 18.731-40.96 22.528-59.733 8.235-9.813-7.467-166.784-128.213-301.269-314.411-18.347 49.835-31.189 113.365-6.4 164.267 65.493 134.699 252.757 206.933 571.435 219.904-81.408-118.997-211.627-275.584-240.597-297.003z" />
<glyph unicode="&#xe94e;" glyph-name="icon_79" data-tags="icon_79" d="M512 597.248c-94.123 0-170.667-76.544-170.667-170.667 0-94.080 76.544-170.667 170.667-170.667s170.667 76.587 170.667 170.667c0 94.123-76.544 170.667-170.667 170.667zM512 341.248c-47.061 0-85.333 38.272-85.333 85.333 0 47.104 38.272 85.333 85.333 85.333s85.333-38.229 85.333-85.333c0-47.019-38.272-85.333-85.333-85.333zM981.333 469.334h-130.944c-7.851 62.165-32.384 119.083-69.077 166.229l102.229 102.187c16.683 16.683 16.683 43.648 0 60.331s-43.648 16.683-60.331 0l-102.229-102.187c-47.189 36.693-104.149 61.269-166.315 69.12v130.987c0 23.595-19.072 42.667-42.667 42.667s-42.667-19.072-42.667-42.667v-130.987c-62.165-7.851-119.125-32.427-166.272-69.077l-102.229 102.144c-16.683 16.683-43.648 16.683-60.331 0s-16.683-43.648 0-60.331l102.229-102.187c-36.736-47.147-61.269-104.064-69.12-166.229h-130.944c-23.595 0-42.667-19.072-42.667-42.667s19.072-42.667 42.667-42.667h130.944c7.808-62.208 32.384-119.168 69.077-166.315l-102.229-102.229c-16.683-16.683-16.683-43.648 0-60.331 8.363-8.363 19.285-12.544 30.208-12.544s21.845 4.181 30.165 12.501l102.229 102.229c47.147-36.736 104.107-61.312 166.272-69.077v-130.901c0-23.595 19.072-42.667 42.667-42.667s42.667 19.072 42.667 42.667v130.901c62.165 7.808 119.125 32.341 166.272 69.077l102.229-102.229c8.32-8.32 19.243-12.501 30.165-12.501s21.845 4.181 30.165 12.501c16.683 16.683 16.683 43.648 0 60.331l-102.229 102.229c36.693 47.147 61.312 104.107 69.077 166.315h130.987c23.595 0 42.667 19.072 42.667 42.667s-19.072 42.709-42.667 42.709zM512.256 170.667c-0.085 0-0.171 0-0.256 0s-0.171-0.043-0.256-0.043c-141.056 0.128-255.744 114.859-255.744 255.957 0 141.184 114.816 256 256 256s256-114.773 256-255.957c0-141.099-114.688-255.957-255.744-255.957z" />
<glyph unicode="&#xe94f;" glyph-name="icon_80" data-tags="icon_80" d="M981.333 469.334h-130.944c-7.851 62.165-32.384 119.083-69.077 166.229l102.229 102.187c16.683 16.683 16.683 43.648 0 60.331s-43.648 16.683-60.331 0l-102.229-102.187c-47.189 36.693-104.149 61.269-166.315 69.12v130.987c0 23.595-19.072 42.667-42.667 42.667s-42.667-19.072-42.667-42.667v-130.987c-62.165-7.851-119.125-32.427-166.272-69.077l-102.229 102.144c-16.683 16.683-43.648 16.683-60.331 0s-16.683-43.648 0-60.331l102.229-102.187c-36.736-47.147-61.269-104.064-69.12-166.229h-130.944c-23.595 0-42.667-19.072-42.667-42.667s19.072-42.667 42.667-42.667h130.944c7.808-62.208 32.384-119.168 69.077-166.315l-102.229-102.229c-16.683-16.683-16.683-43.648 0-60.331 8.363-8.363 19.285-12.544 30.208-12.544s21.845 4.181 30.165 12.501l102.229 102.229c47.147-36.736 104.107-61.312 166.272-69.077v-130.901c0-23.595 19.072-42.667 42.667-42.667s42.667 19.072 42.667 42.667v130.901c62.165 7.808 119.125 32.341 166.272 69.077l102.229-102.229c8.32-8.32 19.243-12.501 30.165-12.501s21.845 4.181 30.165 12.501c16.683 16.683 16.683 43.648 0 60.331l-102.229 102.229c36.693 47.147 61.312 104.107 69.077 166.315h130.987c23.595 0 42.667 19.072 42.667 42.667s-19.072 42.709-42.667 42.709zM512.256 170.667c-0.085 0-0.171 0-0.256 0s-0.171-0.043-0.256-0.043c-141.056 0.128-255.744 114.859-255.744 255.957 0 141.184 114.816 256 256 256s256-114.773 256-255.957c0-141.099-114.688-255.957-255.744-255.957z" />
<glyph unicode="&#xe950;" glyph-name="icon_81" data-tags="icon_81" d="M935.211 144.854l-124.544 290.475v204.587c0 164.693-133.973 298.667-298.667 298.667s-298.667-133.973-298.667-298.667v-204.587l-124.544-290.517c-5.675-13.227-4.309-28.331 3.584-40.32 7.893-11.947 21.291-19.157 35.627-19.157l213.333-0.085c0-94.080 76.544-170.667 170.667-170.667s170.667 76.587 170.667 170.667v0.085h213.333c14.336 0 27.733 7.211 35.627 19.157 7.893 11.989 9.259 27.136 3.584 40.363zM597.333 85.248c0-47.104-38.272-85.333-85.333-85.333s-85.333 38.229-85.333 85.333v0.085l170.667-0.085zM192.725 170.667l102.485 239.104c2.304 5.333 3.456 11.051 3.456 16.811v213.333c0 117.675 95.701 213.333 213.333 213.333s213.333-95.659 213.333-213.333v-213.333c0-5.76 1.152-11.52 3.456-16.853l102.485-239.061h-638.549z" />
<glyph unicode="&#xe951;" glyph-name="icon_82" data-tags="icon_82" d="M935.211 144.854l-124.544 290.475v204.587c0 164.693-133.973 298.667-298.667 298.667s-298.667-133.973-298.667-298.667v-204.587l-124.544-290.517c-5.675-13.227-4.309-28.331 3.584-40.32 7.893-11.947 21.291-19.157 35.627-19.157l213.333-0.085c0-94.080 76.544-170.667 170.667-170.667s170.667 76.587 170.667 170.667v0.085h213.333c14.336 0 27.733 7.211 35.627 19.157 7.893 11.989 9.259 27.136 3.584 40.363zM597.333 85.248c0-47.104-38.272-85.333-85.333-85.333s-85.333 38.229-85.333 85.333v0.085l170.667-0.085zM192.725 170.667l102.485 239.104c2.304 5.333 3.456 11.051 3.456 16.811v213.333c0 117.675 95.701 213.333 213.333 213.333s213.333-95.659 213.333-213.333v-213.333c0-5.76 1.152-11.52 3.456-16.853l102.485-239.061h-638.549zM597.333 426.667h-81.877l115.2 144c10.24 12.843 12.245 30.379 5.163 45.184-7.125 14.72-22.101 24.149-38.485 24.149h-170.667c-23.552 0-42.667-19.072-42.667-42.667s19.115-42.667 42.667-42.667h81.877l-115.2-144c-10.24-12.843-12.245-30.379-5.163-45.184 7.125-14.72 22.101-24.149 38.485-24.149h170.667c23.552 0 42.667 19.072 42.667 42.667s-19.115 42.667-42.667 42.667z" />
<glyph unicode="&#xe952;" glyph-name="icon_83" data-tags="icon_83" d="M935.211 144.854l-124.544 290.475v204.587c0 164.693-133.973 298.667-298.667 298.667s-298.667-133.973-298.667-298.667v-204.587l-124.544-290.517c-5.675-13.227-4.309-28.331 3.584-40.32 7.893-11.947 21.291-19.157 35.627-19.157l213.333-0.085c0-94.080 76.544-170.667 170.667-170.667s170.667 76.587 170.667 170.667v0.085h213.333c14.336 0 27.733 7.211 35.627 19.157 7.893 11.989 9.259 27.136 3.584 40.363zM597.333 85.248c0-47.104-38.272-85.333-85.333-85.333s-85.333 38.229-85.333 85.333v0.085l170.667-0.085zM192.725 170.667l102.485 239.104c2.304 5.333 3.456 11.051 3.456 16.811v213.333c0 117.675 95.701 213.333 213.333 213.333s213.333-95.659 213.333-213.333v-213.333c0-5.76 1.152-11.52 3.456-16.853l102.485-239.061h-638.549zM640 554.667h-85.333v85.333c0 23.595-19.115 42.667-42.667 42.667s-42.667-19.072-42.667-42.667v-85.333h-85.333c-23.552 0-42.667-19.072-42.667-42.667s19.115-42.667 42.667-42.667h85.333v-85.333c0-23.595 19.115-42.667 42.667-42.667s42.667 19.072 42.667 42.667v85.333h85.333c23.552 0 42.667 19.072 42.667 42.667s-19.115 42.667-42.667 42.667z" />
<glyph unicode="&#xe953;" glyph-name="icon_84" data-tags="icon_84" d="M810.667 435.328v34.005c0 23.595-19.115 42.667-42.667 42.667s-42.667-19.072-42.667-42.667v-42.752c0-5.76 1.152-11.52 3.456-16.853l102.485-239.061h-447.275c-23.552 0-42.667-19.072-42.667-42.667 0-7.979 2.773-15.019 6.571-21.376-3.797-6.357-6.571-13.397-6.571-21.376 0-94.080 76.544-170.667 170.667-170.667s170.667 76.587 170.667 170.667v0.085h213.333c14.336 0 27.733 7.211 35.627 19.157 7.893 11.989 9.259 27.136 3.584 40.32l-124.544 290.517zM597.333 85.248c0-47.104-38.272-85.333-85.333-85.333s-85.333 38.229-85.333 85.333v0.085l170.667-0.085zM968.832 926.080c-16.683 16.683-43.648 16.683-60.331 0l-137.771-137.771c-52.096 90.624-149.504 150.315-258.731 150.315-164.693 0-298.667-134.016-298.667-298.709v-204.587l-124.544-290.517c-5.12-11.904-4.224-25.344 1.792-36.651l-120.747-120.747c-16.683-16.683-16.683-43.648 0-60.331 8.32-8.32 19.243-12.501 30.165-12.501s21.845 4.181 30.165 12.501l938.667 938.667c16.683 16.683 16.683 43.648 0 60.331zM295.211 409.771c2.304 5.333 3.456 11.051 3.456 16.811v213.333c0 117.675 95.701 213.376 213.333 213.376 86.187 0 161.963-52.139 195.2-128.512l-484.736-484.736 72.747 169.728z" />
<glyph unicode="&#xe954;" glyph-name="icon_85" data-tags="icon_85" d="M512 938.582c-282.325 0-512-229.675-512-512s229.675-512 512-512 512 229.675 512 512-229.675 512-512 512zM512 255.915c-94.123 0-170.667 76.587-170.667 170.667 0 94.123 76.544 170.667 170.667 170.667s170.667-76.544 170.667-170.667c0-94.080-76.544-170.667-170.667-170.667zM85.333 426.582c0 14.421 0.768 28.672 2.176 42.752h172.373c-2.389-13.909-3.883-28.16-3.883-42.752 0-14.549 1.493-28.715 3.84-42.581h-172.331c-1.408 13.995-2.176 28.203-2.176 42.581zM764.117 469.334h172.373c1.408-14.080 2.176-28.331 2.176-42.752 0-14.379-0.768-28.587-2.176-42.581h-172.331c2.347 13.867 3.84 28.032 3.84 42.581 0 14.592-1.493 28.843-3.883 42.752zM918.955 554.667h-185.643c-22.443 38.656-54.656 70.827-93.312 93.312v185.6c132.437-41.728 237.184-146.475 278.955-278.912zM554.667 851.072v-172.331c-13.909 2.347-28.117 3.84-42.667 3.84s-28.757-1.493-42.667-3.84v172.331c14.037 1.408 28.288 2.176 42.667 2.176s28.629-0.768 42.667-2.176zM384 833.579v-185.643c-38.656-22.443-70.869-54.613-93.312-93.269h-185.643c41.771 132.437 146.517 237.184 278.955 278.912zM104.96 298.667h185.6c24.619-42.411 60.971-77.141 104.704-99.669-6.827-7.552-11.264-17.323-11.264-28.331v-151.083c-132.48 41.728-237.312 146.603-279.040 279.083zM469.333 2.091v168.576c0 1.365-0.683 2.56-0.811 3.925 14.165-2.475 28.629-4.011 43.477-4.011s29.312 1.536 43.477 4.011c-0.128-1.365-0.811-2.56-0.811-3.925v-168.576c-14.037-1.408-28.288-2.176-42.667-2.176s-28.629 0.768-42.667 2.176zM640 19.584v151.083c0 11.008-4.437 20.779-11.264 28.331 43.733 22.528 80.085 57.259 104.704 99.669h185.6c-41.728-132.48-146.56-237.355-279.040-279.083z" />
<glyph unicode="&#xe955;" glyph-name="icon_86" data-tags="icon_86" d="M512 938.582c-282.325 0-512-229.675-512-512s229.675-512 512-512 512 229.675 512 512-229.675 512-512 512zM842.155 156.758l-152.363 152.363c22.357 33.707 35.541 74.027 35.541 117.461s-13.184 83.755-35.541 117.461l152.363 152.363c60.245-73.557 96.512-167.509 96.512-269.824s-36.267-196.267-96.512-269.824zM384 426.582c0 70.571 57.429 128 128 128s128-57.429 128-128-57.429-128-128-128-128 57.429-128 128zM781.824 756.736l-152.363-152.363c-33.707 22.357-74.027 35.541-117.461 35.541s-83.755-13.184-117.461-35.541l-152.363 152.363c73.557 60.245 167.552 96.512 269.824 96.512s196.267-36.267 269.824-96.512zM181.845 696.406l152.363-152.363c-22.357-33.707-35.541-74.027-35.541-117.461s13.184-83.755 35.541-117.461l-152.363-152.363c-60.245 73.557-96.512 167.552-96.512 269.824s36.267 196.267 96.512 269.824zM242.176 96.427l152.363 152.363c33.707-22.357 74.027-35.541 117.461-35.541s83.755 13.184 117.461 35.541l152.363-152.363c-73.557-60.245-167.552-96.512-269.824-96.512s-196.267 36.267-269.824 96.512z" />
<glyph unicode="&#xe956;" glyph-name="icon_87" data-tags="icon_87" d="M725.333 725.334h-426.667c-0.171 0-0.256-0.085-0.427-0.085-164.437-0.256-298.24-134.101-298.24-298.667 0-164.651 134.016-298.581 298.667-298.581 0.555 0 1.067 0 1.664 0h425.003c164.651 0 298.667 134.059 298.667 298.709 0 164.693-134.016 298.624-298.667 298.624zM299.52 213.334h-0.853c-0.085 0-0.171-0.085-0.299-0.085-117.461 0.171-213.035 95.787-213.035 213.333 0 117.675 95.701 213.333 213.333 213.333s213.333-95.659 213.333-213.333c0-117.333-95.232-212.779-212.48-213.248zM725.333 213.334h-217.941c55.381 54.229 89.941 129.749 89.941 213.248 0 83.584-34.645 159.147-90.112 213.419h218.112c117.632 0 213.333-95.701 213.333-213.333s-95.701-213.333-213.333-213.333z" />
<glyph unicode="&#xe957;" glyph-name="icon_88" data-tags="icon_88" d="M725.76 725.248c-0.171 0-0.256 0.085-0.427 0.085h-426.667c-164.651 0-298.667-134.016-298.667-298.667s134.016-298.667 298.667-298.667h425.003c0.597 0 1.109 0 1.664 0 164.651 0 298.667 133.931 298.667 298.581 0 164.523-133.803 298.411-298.24 298.667zM298.667 213.334c-117.632 0-213.333 95.701-213.333 213.333s95.701 213.333 213.333 213.333h218.112c-55.467-54.229-90.112-129.835-90.112-213.419 0-83.499 34.56-159.019 89.941-213.248h-217.941zM725.632 213.248c-0.128 0-0.213 0.085-0.299 0.085h-0.853c-117.248 0.469-212.48 95.915-212.48 213.248 0 117.675 95.701 213.333 213.333 213.333s213.333-95.659 213.333-213.333c0-117.547-95.573-213.163-213.035-213.333z" />
<glyph unicode="&#xe958;" glyph-name="icon_89" data-tags="icon_89" d="M726.187 341.163c-0.299 0-0.555 0.171-0.853 0.171h-422.784c-121.813 0-217.216-93.696-217.216-213.333s95.403-213.333 217.216-213.333h421.973c0.299 0 0.555 0 0.853 0 117.632 0 213.333 95.659 213.333 213.248-0.043 117.333-95.275 212.821-212.523 213.248zM170.667 128c0 71.765 57.899 128 131.883 128h253.312c-27.136-42.667-43.861-79.829-43.861-128.085 0-48.171 16.683-85.248 43.648-127.915h-253.099c-73.984 0-131.883 56.235-131.883 128zM725.632-0c-0.128 0-0.213 0-0.299 0h-0.853c-70.187 0-127.147 57.685-127.147 127.915 0 70.571 57.429 128.043 128 128.043s128-57.429 128-128c0-70.485-57.259-127.957-127.701-127.957zM298.667 426.667c0.299 0 0.555 0 0.853 0h421.973c121.771 0 217.173 93.696 217.173 213.333s-95.403 213.333-217.216 213.333h-422.784c-0.213 0-0.427-0.085-0.64-0.085-117.333-0.341-212.693-95.872-212.693-213.291 0-117.632 95.701-213.291 213.333-213.291zM853.333 640c0-71.765-57.899-128-131.883-128h-253.184c27.051 42.667 43.733 79.744 43.733 127.915 0 48.256-16.725 85.419-43.776 128.085h253.269c73.941 0 131.84-56.235 131.84-128zM298.667 768c70.571 0 128-57.472 128-128.043 0-70.272-57.003-127.957-127.147-127.957h-0.853c-0.085 0-0.171-0.043-0.299-0.043-70.443 0.171-127.701 57.557-127.701 128 0 70.571 57.429 128.043 128 128.043z" />
<glyph unicode="&#xe959;" glyph-name="icon_90" data-tags="icon_90" d="M746.667 383.915c-50.005 0-96.256-15.829-134.357-42.581h-418.091c-107.093 0-194.219-86.144-194.219-192s87.125-192 194.219-192h417.877c38.144-26.837 84.48-42.752 134.571-42.752 129.365 0 234.667 105.259 234.667 234.667s-105.301 234.667-234.667 234.667zM85.333 149.334c0 59.819 47.829 106.667 108.885 106.667h343.765c-16.469-32.085-25.984-68.309-25.984-106.752 0-38.4 9.472-74.581 25.856-106.581h-343.637c-61.056 0-108.885 46.848-108.885 106.667zM746.667-0.085c-24.405 0-47.104 6.4-67.456 16.896-6.144 14.208-19.883 24.021-36.053 25.216-28.16 27.179-45.824 65.109-45.824 107.221 0 42.24 17.792 80.256 46.080 107.435 15.957 1.323 29.483 10.965 35.627 24.96 20.395 10.453 43.179 16.939 67.627 16.939 82.347 0 149.333-66.987 149.333-149.333s-66.987-149.333-149.333-149.333zM234.667 426.582c60.757 0 115.968 23.424 157.653 61.397 7.765-10.965 19.883-18.645 34.347-18.645h359.296c109.525 0 195.371 84.352 195.371 192s-85.845 192-195.371 192h-359.296c-14.507 0-26.667-7.68-34.389-18.731-41.685 37.973-96.896 61.312-157.611 61.312-129.365 0-234.667-105.259-234.667-234.667s105.301-234.667 234.667-234.667zM896 661.334c0-59.819-48.341-106.667-110.037-106.667h-342.485c16.384 32.043 25.856 68.224 25.856 106.581 0 38.485-9.472 74.667-25.941 106.752h342.571c61.696 0 110.037-46.848 110.037-106.667zM234.667 810.582c82.347 0 149.333-66.987 149.333-149.333s-66.987-149.333-149.333-149.333-149.333 66.987-149.333 149.333 66.987 149.333 149.333 149.333z" />
<glyph unicode="&#xe95a;" glyph-name="icon_91" data-tags="icon_91" d="M512 682.582c-70.571 0-128 57.429-128 128s57.429 128 128 128 128-57.429 128-128-57.429-128-128-128zM512 853.248c-23.509 0-42.667-19.157-42.667-42.667s19.157-42.667 42.667-42.667 42.667 19.157 42.667 42.667-19.157 42.667-42.667 42.667zM512 298.582c-70.571 0-128 57.429-128 128s57.429 128 128 128 128-57.429 128-128-57.429-128-128-128zM512 469.248c-23.509 0-42.667-19.157-42.667-42.667s19.157-42.667 42.667-42.667 42.667 19.157 42.667 42.667-19.157 42.667-42.667 42.667zM512-85.418c-70.571 0-128 57.429-128 128s57.429 128 128 128 128-57.429 128-128-57.429-128-128-128zM512 85.248c-23.509 0-42.667-19.157-42.667-42.667s19.157-42.667 42.667-42.667 42.667 19.157 42.667 42.667-19.157 42.667-42.667 42.667z" />
<glyph unicode="&#xe95b;" glyph-name="icon_92" data-tags="icon_92" d="M128 298.582c-70.571 0-128 57.429-128 128s57.429 128 128 128 128-57.429 128-128-57.429-128-128-128zM128 469.248c-23.509 0-42.667-19.157-42.667-42.667s19.157-42.667 42.667-42.667 42.667 19.157 42.667 42.667-19.157 42.667-42.667 42.667zM512 298.582c-70.571 0-128 57.429-128 128s57.429 128 128 128 128-57.429 128-128-57.429-128-128-128zM512 469.248c-23.509 0-42.667-19.157-42.667-42.667s19.157-42.667 42.667-42.667 42.667 19.157 42.667 42.667-19.157 42.667-42.667 42.667zM896 298.582c-70.571 0-128 57.429-128 128s57.429 128 128 128 128-57.429 128-128-57.429-128-128-128zM896 469.248c-23.509 0-42.667-19.157-42.667-42.667s19.157-42.667 42.667-42.667 42.667 19.157 42.667 42.667-19.157 42.667-42.667 42.667z" />
<glyph unicode="&#xe95c;" glyph-name="icon_93" data-tags="icon_93" d="M597.333 682.667h-170.667c-23.552 0-42.667 19.072-42.667 42.667v170.667c0 23.595 19.115 42.667 42.667 42.667h170.667c23.552 0 42.667-19.072 42.667-42.667v-170.667c0-23.595-19.115-42.667-42.667-42.667zM469.333 768h85.333v85.333h-85.333v-85.333zM597.333 298.667h-170.667c-23.552 0-42.667 19.072-42.667 42.667v170.667c0 23.595 19.115 42.667 42.667 42.667h170.667c23.552 0 42.667-19.072 42.667-42.667v-170.667c0-23.595-19.115-42.667-42.667-42.667zM469.333 384h85.333v85.333h-85.333v-85.333zM597.333-85.333h-170.667c-23.552 0-42.667 19.072-42.667 42.667v170.667c0 23.595 19.115 42.667 42.667 42.667h170.667c23.552 0 42.667-19.072 42.667-42.667v-170.667c0-23.595-19.115-42.667-42.667-42.667zM469.333-0h85.333v85.333h-85.333v-85.333z" />
<glyph unicode="&#xe95d;" glyph-name="icon_94" data-tags="icon_94" d="M426.667 938.667h170.667v-170.667h-170.667v170.667zM426.667 512h170.667v-170.667h-170.667v170.667zM426.667 85.334h170.667v-170.667h-170.667v170.667z" />
<glyph unicode="&#xe95e;" glyph-name="icon_95" data-tags="icon_95" d="M512-85.418c-282.325 0-512 229.675-512 512s229.675 512 512 512 512-229.675 512-512-229.675-512-512-512zM512 853.248c-235.264 0-426.667-191.403-426.667-426.667s191.403-426.667 426.667-426.667 426.667 191.403 426.667 426.667-191.403 426.667-426.667 426.667zM341.333 426.582c0-47.128-38.205-85.333-85.333-85.333s-85.333 38.205-85.333 85.333c0 47.128 38.205 85.333 85.333 85.333s85.333-38.205 85.333-85.333zM597.333 426.582c0-47.128-38.205-85.333-85.333-85.333s-85.333 38.205-85.333 85.333c0 47.128 38.205 85.333 85.333 85.333s85.333-38.205 85.333-85.333zM853.333 426.582c0-47.128-38.205-85.333-85.333-85.333s-85.333 38.205-85.333 85.333c0 47.128 38.205 85.333 85.333 85.333s85.333-38.205 85.333-85.333z" />
<glyph unicode="&#xe95f;" glyph-name="icon_96" data-tags="icon_96" d="M512-85.418c-282.325 0-512 229.675-512 512s229.675 512 512 512 512-229.675 512-512-229.675-512-512-512zM512 853.248c-235.264 0-426.667-191.403-426.667-426.667s191.403-426.667 426.667-426.667 426.667 191.403 426.667 426.667-191.403 426.667-426.667 426.667zM341.333 597.334h85.333v-85.333h-85.333v85.333zM469.333 597.334h85.333v-85.333h-85.333v85.333zM597.333 597.334h85.333v-85.333h-85.333v85.333zM341.333 469.334h85.333v-85.333h-85.333v85.333zM469.333 469.334h85.333v-85.333h-85.333v85.333zM597.333 469.334h85.333v-85.333h-85.333v85.333zM341.333 341.248h85.333v-85.248h-85.333v85.248zM469.333 341.248h85.333v-85.248h-85.333v85.248zM597.333 341.248h85.333v-85.248h-85.333v85.248z" />
</font>
</defs>
</svg>
